VERSION	0.00.00	1.03.00
FES_MODE	0
BPM_DEF	147.000	147.000	147.000	147.000
MET_DEF	4	4
RESOLUTION	384
CLK_DEF	384
COMPATIBLE_CODE	MA2

BPM	0	0	147.000
MET	0	0	4	4

TAP	2	0	1
TAP	4	0	2
TAP	6	0	1
STR	8	0	0
SI_	8	0	0	96	192	3
TAP	10	96	7
TAP	10	288	7
TAP	11	96	6
TAP	11	288	6
TAP	12	96	7
TAP	12	288	7
TAP	13	96	0
TAP	13	288	0
TAP	14	96	1
TAP	14	288	1
TAP	15	96	2
TAP	15	288	2
TAP	16	96	1
TAP	16	288	1
BRK	17	0	1
TAP	18	0	7
TAP	18	192	7
TAP	19	0	6
TAP	19	192	6
TAP	20	0	7
TAP	20	192	0
TAP	21	0	1
TAP	21	192	2
TAP	22	0	0
TAP	22	192	0
TAP	23	0	7
TAP	23	192	7
HLD	24	0	0	288
HLD	25	0	1	288
TAP	26	0	0
TAP	26	96	0
TAP	27	0	7
TAP	27	96	7
TAP	28	0	0
TAP	28	96	0
TAP	29	0	1
TAP	29	96	1
TAP	30	0	0
TAP	30	192	0
TAP	31	0	7
TAP	31	192	7
HLD	32	0	6	288
HLD	33	0	5	288
STR	34	0	6
SI_	34	0	6	96	192	1
TAP	36	0	2
TAP	37	0	3
STR	38	0	2
SI_	38	0	2	96	192	5
TAP	40	0	6
TAP	40	192	6
TAP	41	0	7
TAP	41	192	7
STR	42	0	0
SI_	42	0	0	96	192	3
TAP	44	0	4
TAP	45	0	5
HLD	46	0	4	384
TAP	48	0	0
TAP	48	192	0
BRK	49	0	0
TAP	50	0	0
TAP	50	96	0
TAP	51	0	1
TAP	51	96	1
TAP	52	0	0
TAP	52	96	0
BRK	53	0	7
TAP	54	0	6
TAP	54	96	6
TAP	55	0	5
TAP	55	96	5
TAP	56	0	6
TAP	56	192	6
TAP	57	0	7
TAP	57	192	0
TAP	57	192	7
TAP	58	0	1
TAP	58	96	1
TAP	59	0	2
TAP	59	96	2
TAP	60	0	7
TAP	60	96	7
TAP	61	0	6
TAP	61	96	6
HLD	62	0	7	288
HLD	63	0	0	288
STR	64	0	1
SI_	64	0	1	96	192	6
TAP	66	0	7
TAP	66	96	7
TAP	67	0	6
TAP	67	96	6
TAP	68	0	7
TAP	68	96	7
BRK	69	0	0
TAP	70	0	1
TAP	70	96	1
TAP	71	0	2
TAP	71	96	2
TAP	72	0	1
TAP	72	192	0
TAP	73	0	7
TAP	73	96	7
TAP	73	192	7
BRK	73	288	7
TAP	74	0	6
TAP	74	96	6
TAP	75	0	5
TAP	75	96	5
TAP	76	0	6
TAP	76	96	6
TAP	77	0	0
TAP	77	96	0
HLD	78	0	1	288
HLD	79	0	2	288
STR	80	0	3
SI_	80	0	3	96	192	0

T_REC_TAP	97
T_REC_BRK	5
T_REC_XTP	0
T_REC_HLD	9
T_REC_XHO	0
T_REC_STR	6
T_REC_BST	0
T_REC_XST	0
T_REC_TTP	0
T_REC_THO	0
T_REC_SLD	6
T_REC_ALL	123
T_NUM_TAP	103
T_NUM_BRK	5
T_NUM_HLD	9
T_NUM_SLD	6
T_NUM_ALL	123
T_JUDGE_TAP	108
T_JUDGE_HLD	56
T_JUDGE_SLD	6
T_JUDGE_ALL	170
TTM_EACHPAIRS	1
TTM_SCR_TAP	51500
TTM_SCR_BRK	13000
TTM_SCR_HLD	9000
TTM_SCR_SLD	9000
TTM_SCR_ALL	82500
TTM_SCR_S	79550
TTM_SCR_SS	82000
TTM_RAT_ACV	10060

