VERSION	0.00.00	1.03.00
FES_MODE	0
BPM_DEF	154.000	154.000	154.000	154.000
MET_DEF	4	4
RESOLUTION	384
CLK_DEF	384
COMPATIBLE_CODE	MA2

BPM	0	0	154.000
MET	0	0	4	4
CLK	0	0
CLK	0	96
CLK	0	192
CLK	0	288

HLD	2	0	3	1440
TAP	2	0	4
TAP	2	96	2
TAP	2	288	2
TAP	3	96	1
TAP	3	288	1
TAP	4	96	6
TAP	4	288	5
TAP	5	96	4
TAP	5	288	4
TAP	5	336	2
TAP	6	0	3
HLD	6	0	4	672
TAP	6	96	5
TAP	6	288	3
TAP	7	96	6
TAP	7	288	1
BST	7	336	1
SSR	7	336	1	96	288	5
HLD	7	336	7	384
TAP	9	48	0
TAP	9	72	1
TAP	9	96	2
TAP	9	120	3
TAP	9	144	4
TAP	9	168	5
TAP	9	192	6
TAP	9	192	7
TAP	9	240	0
TAP	9	240	1
TAP	9	288	3
TAP	9	312	4
TAP	9	336	3
TAP	9	360	4
TAP	10	0	1
TAP	10	0	6
STR	10	96	0
SI_	10	96	0	96	48	5
TAP	10	120	1
TAP	10	144	2
TAP	10	192	0
TAP	10	240	4
TAP	10	288	3
TAP	10	336	2
STR	11	0	0
SI_	11	0	0	96	48	4
TAP	11	0	1
TAP	11	48	7
TAP	11	96	0
STR	11	96	1
SI_	11	96	1	96	48	5
TAP	11	144	2
TAP	11	192	0
TAP	11	192	1
TAP	11	240	7
TAP	11	288	6
TAP	11	336	3
HLD	11	336	5	144
TAP	12	48	2
TAP	12	96	2
TAP	12	192	1
TAP	12	192	3
TAP	12	240	2
TAP	12	288	4
TAP	12	288	6
TAP	12	336	5
TAP	13	0	0
TAP	13	0	3
TAP	13	48	2
TAP	13	96	4
TAP	13	96	7
TAP	13	144	5
TAP	13	192	1
TAP	13	216	3
TAP	13	240	2
TAP	13	288	3
TAP	13	288	4
TAP	13	336	1
TAP	13	336	6
TAP	14	0	3
TAP	14	48	4
STR	14	96	7
SI_	14	96	7	96	48	2
TAP	14	120	6
TAP	14	144	5
TAP	14	192	7
TAP	14	240	3
TAP	14	288	4
TAP	14	336	5
TAP	15	0	6
STR	15	0	7
SI_	15	0	7	96	48	3
TAP	15	48	0
STR	15	96	6
SI_	15	96	6	96	48	2
TAP	15	96	7
TAP	15	144	5
TAP	15	192	6
TAP	15	192	7
TAP	15	240	0
TAP	15	288	1
TAP	15	336	0
HLD	15	336	4	240
TAP	16	0	7
TAP	16	48	1
TAP	16	96	6
TAP	16	144	2
TAP	16	192	5
TAP	16	240	3
TAP	16	264	4
TAP	16	288	3
TAP	16	336	1
TAP	16	336	6
TAP	17	0	5
TAP	17	24	4
TAP	17	48	6
STR	17	96	2
SLR	17	96	2	96	96	0
TAP	17	120	3
TAP	17	144	1
TAP	17	192	2
TAP	17	192	5
TAP	17	240	6
TAP	17	288	7
HLD	18	0	6	144
TAP	18	0	7
TAP	18	48	0
TAP	18	96	1
STR	18	144	2
SI_	18	144	2	96	48	6
HLD	18	240	2	96
TAP	19	0	4
TAP	19	0	5
STR	19	48	4
SSL	19	48	4	96	144	0
TAP	19	48	5
TAP	19	96	4
TAP	19	96	5
TAP	19	144	4
HLD	19	144	6	144
TAP	20	0	0
HLD	20	0	1	144
TAP	20	48	7
TAP	20	96	6
STR	20	144	5
SI_	20	144	5	96	48	1
HLD	20	240	5	96
TAP	21	0	2
TAP	21	0	3
TAP	21	48	2
TAP	21	48	4
TAP	21	96	2
TAP	21	96	5
TAP	21	144	2
TAP	21	144	6
TAP	21	192	2
TAP	21	192	7
TAP	21	216	6
TAP	21	240	5
TAP	21	264	4
TAP	21	288	3
TAP	21	312	2
TAP	21	336	1
TAP	21	360	0
TAP	22	0	5
TAP	22	0	7
TAP	22	48	3
TAP	22	48	6
TAP	22	96	5
TAP	22	120	4
TAP	22	144	5
TAP	22	168	4
TAP	22	192	6
TAP	22	240	2
TAP	22	240	3
TAP	22	288	0
TAP	22	288	1
TAP	22	336	6
TAP	22	336	7
TAP	23	0	5
TAP	23	24	4
TAP	23	48	5
TAP	23	72	4
TAP	23	96	6
TAP	23	144	2
TAP	23	168	3
TAP	23	192	1
TAP	23	240	0
TAP	23	240	7
TAP	23	288	4
TAP	23	288	5
TAP	23	336	2
TAP	23	336	3
TAP	24	0	0
TAP	24	0	2
TAP	24	48	1
TAP	24	48	4
TAP	24	96	2
TAP	24	120	3
TAP	24	144	2
TAP	24	168	3
TAP	24	192	1
TAP	24	240	4
TAP	24	240	5
TAP	24	288	6
TAP	24	288	7
TAP	24	336	0
TAP	24	336	1
TAP	25	0	2
TAP	25	24	3
TAP	25	48	2
TAP	25	72	3
TAP	25	96	1
TAP	25	144	0
TAP	25	144	7
TAP	25	192	1
TAP	25	192	6
TAP	25	240	2
TAP	25	264	5
TAP	25	288	3
TAP	25	312	4
TAP	25	336	3
TAP	25	360	4
TAP	26	0	2
TAP	26	0	5
TAP	26	48	5
TAP	26	96	1
TAP	26	96	6
TAP	26	144	0
TAP	26	144	7
TAP	26	192	1
TAP	26	216	3
TAP	26	240	2
TAP	26	288	0
TAP	26	288	7
TAP	26	336	1
TAP	26	336	6
STR	27	0	7
SCL	27	0	7	96	48	4
TAP	27	48	3
STR	27	96	7
SCR	27	96	7	96	48	2
TAP	27	144	3
TAP	27	192	7
TAP	27	240	3
TAP	27	288	0
TAP	27	288	6
TAP	28	0	2
TAP	28	0	4
TAP	28	48	2
TAP	28	96	1
TAP	28	96	6
TAP	28	144	0
TAP	28	144	7
TAP	28	192	6
TAP	28	216	4
TAP	28	240	5
TAP	28	288	0
TAP	28	288	7
TAP	28	336	1
TAP	28	336	6
STR	29	0	0
SCR	29	0	0	96	48	3
TAP	29	48	4
TAP	29	96	0
TAP	29	144	6
TAP	29	192	4
TAP	29	192	5
TAP	29	240	2
TAP	29	240	3
TAP	29	288	1
TAP	29	288	7
BST	30	0	0
SCR	30	0	0	96	48	4
TAP	30	48	6
TAP	30	96	6
STR	30	144	7
SCL	30	144	7	96	48	3
TAP	30	192	1
TAP	30	240	1
STR	30	288	0
SCR	30	288	0	96	48	4
TAP	30	336	5
TAP	31	0	5
TAP	31	48	6
HLD	31	96	0	96
TAP	31	96	7
TAP	31	144	1
TAP	31	192	2
TAP	31	240	0
TAP	31	240	3
TAP	31	288	1
TAP	31	288	4
TAP	31	336	2
TAP	31	336	5
STR	32	0	7
SCL	32	0	7	96	48	3
TAP	32	48	1
TAP	32	96	1
STR	32	144	0
SCR	32	144	0	96	48	4
TAP	32	192	6
TAP	32	240	6
STR	32	288	7
SCL	32	288	7	96	48	3
TAP	32	336	2
TAP	33	0	2
TAP	33	48	1
TAP	33	96	7
TAP	33	120	0
TAP	33	144	4
TAP	33	168	3
TAP	33	192	5
TAP	33	216	1
TAP	33	240	7
TAP	33	264	4
TAP	33	288	6
TAP	33	312	2
TAP	33	336	4
TAP	33	360	0
BRK	34	0	1
BRK	34	0	7
TAP	34	96	1
TAP	34	96	3
TAP	34	144	1
TAP	34	192	1
TAP	34	192	3
TAP	34	240	1
TAP	34	288	1
TAP	34	288	3
TAP	34	336	1
TAP	35	0	1
TAP	35	24	0
TAP	35	48	1
TAP	35	96	3
TAP	35	96	4
TAP	35	144	3
TAP	35	144	4
TAP	35	192	6
TAP	35	216	7
TAP	35	240	6
TAP	35	288	3
TAP	35	288	4
TAP	35	336	3
TAP	35	336	4
TAP	36	0	1
TAP	36	24	4
TAP	36	48	3
TAP	36	72	4
TAP	36	96	0
TAP	36	120	4
TAP	36	144	3
TAP	36	168	4
TAP	36	192	7
TAP	36	216	4
TAP	36	240	3
TAP	36	264	4
TAP	36	288	6
TAP	36	312	4
TAP	36	336	3
TAP	36	360	4
STR	37	0	7
SCR	37	0	7	96	48	2
TAP	37	48	6
TAP	37	72	6
STR	37	96	7
SI_	37	96	7	96	48	3
TAP	37	144	5
TAP	37	168	5
TAP	37	192	7
TAP	37	240	4
TAP	37	264	4
TAP	37	288	7
TAP	37	336	1
TAP	37	336	6
STR	38	0	0
SCL	38	0	0	96	48	5
TAP	38	48	1
TAP	38	72	1
STR	38	96	0
SI_	38	96	0	96	48	4
TAP	38	144	2
TAP	38	168	2
TAP	38	192	0
TAP	38	240	3
TAP	38	264	3
TAP	38	288	7
TAP	38	336	1
TAP	38	336	6
TAP	39	0	2
TAP	39	24	3
TAP	39	48	2
TAP	39	96	5
TAP	39	120	4
TAP	39	144	5
TAP	39	192	2
TAP	39	216	3
TAP	39	240	2
TAP	39	264	3
HLD	39	288	2	48
TAP	39	336	4
TAP	39	360	4
TAP	40	0	3
TAP	40	48	5
TAP	40	72	5
TAP	40	96	4
TAP	40	144	6
TAP	40	168	6
TAP	40	192	5
TAP	40	240	7
TAP	40	264	7
TAP	40	288	6
TAP	40	336	0
TAP	40	360	0
TAP	41	0	1
TAP	41	0	7
TAP	41	48	1
TAP	41	48	7
TAP	41	96	1
TAP	41	96	7
TAP	41	144	1
TAP	41	144	7
TAP	41	192	1
TAP	41	192	7
TAP	41	240	1
TAP	41	240	7
TAP	41	288	7
TAP	41	312	7
TAP	41	336	7
TAP	41	360	7
STR	42	0	0
SCR	42	0	0	96	48	3
TAP	42	0	6
TAP	42	48	1
TAP	42	96	0
STR	42	96	6
SCL	42	96	6	96	48	3
TAP	42	144	7
STR	42	192	0
SI_	42	192	0	96	48	4
TAP	42	192	6
TAP	42	240	1
TAP	42	288	0
TAP	42	288	6
TAP	42	336	7
TAP	43	0	0
TAP	43	0	6
TAP	43	48	1
TAP	43	96	3
TAP	43	96	7
TAP	43	144	6
TAP	43	192	0
TAP	43	192	4
TAP	43	240	1
TAP	43	288	3
TAP	43	288	7
TAP	43	336	2
TAP	43	360	2
STR	44	0	0
SCL	44	0	0	96	48	5
TAP	44	48	2
TAP	44	72	2
STR	44	96	0
SI_	44	96	0	96	48	4
TAP	44	144	2
TAP	44	168	2
TAP	44	192	0
TAP	44	240	2
TAP	44	264	2
TAP	44	288	0
TAP	44	336	5
TAP	44	360	5
STR	45	0	7
SCR	45	0	7	96	48	2
TAP	45	48	5
TAP	45	72	5
STR	45	96	7
SI_	45	96	7	96	48	3
TAP	45	144	5
TAP	45	168	5
TAP	45	192	7
TAP	45	240	5
TAP	45	264	5
TAP	45	288	0
TAP	45	336	1
HLD	46	0	6	48
HLD	46	48	3	48
HLD	46	96	5	48
TAP	46	144	4
TAP	46	168	4
TAP	46	192	5
TAP	46	240	3
TAP	46	264	3
TAP	46	288	4
TAP	46	336	2
TAP	46	360	2
TAP	47	0	3
TAP	47	48	1
TAP	47	72	1
TAP	47	96	2
TAP	47	144	0
TAP	47	168	0
TAP	47	192	1
TAP	47	240	7
TAP	47	264	7
TAP	47	288	0
TAP	47	288	6
TAP	47	336	0
TAP	47	336	6
TAP	48	0	7
TAP	48	16	6
TAP	48	32	5
TAP	48	48	4
TAP	48	96	3
TAP	48	96	4
TAP	48	144	3
TAP	48	144	4
TAP	48	192	0
TAP	48	208	1
TAP	48	224	2
TAP	48	240	3
TAP	48	288	3
TAP	48	288	4
TAP	48	336	3
TAP	48	336	4
TAP	49	0	7
TAP	49	16	6
TAP	49	32	5
TAP	49	48	4
TAP	49	96	3
TAP	49	96	4
TAP	49	144	3
TAP	49	144	4
TAP	49	192	0
TAP	49	208	1
TAP	49	224	2
TAP	49	240	3
TAP	49	288	3
TAP	49	288	4
TAP	49	336	3
TAP	49	336	4
TAP	50	0	7
TAP	50	24	7
TAP	50	48	7
TAP	50	96	0
TAP	50	120	0
TAP	50	144	0
TAP	50	192	6
TAP	50	216	6
TAP	50	240	6
TAP	50	288	1
TAP	50	312	1
TAP	50	336	1
TAP	51	0	5
TAP	51	24	5
TAP	51	48	5
TAP	51	96	2
TAP	51	120	2
TAP	51	144	2
TAP	51	192	4
TAP	51	216	4
TAP	51	240	4
TAP	51	288	3
TAP	51	312	3
TAP	51	336	3
TAP	52	0	4
HLD	52	0	6	384
TAP	52	96	5
TAP	52	144	5
TAP	52	192	5
TAP	52	240	5
TAP	52	288	5
TAP	52	336	5
STR	53	0	4
SI_	53	0	4	96	48	0
HLD	53	48	4	96
STR	53	192	3
SI_	53	192	3	96	48	7
HLD	53	240	3	96
TAP	54	0	5
TAP	54	24	4
STR	54	48	5
SI_	54	48	5	96	24	7
TAP	54	72	4
TAP	54	96	5
TAP	54	144	0
TAP	54	192	2
TAP	54	216	3
STR	54	240	2
SI_	54	240	2	96	24	0
TAP	54	264	3
TAP	54	288	2
TAP	54	336	7
TAP	55	0	5
TAP	55	24	4
STR	55	48	5
SI_	55	48	5	96	24	7
TAP	55	72	4
TAP	55	96	5
TAP	55	144	0
TAP	55	192	2
TAP	55	216	3
STR	55	240	2
SI_	55	240	2	96	24	0
TAP	55	264	3
TAP	55	288	2
TAP	55	336	7
TAP	56	0	4
TAP	56	24	5
TAP	56	48	4
TAP	56	72	5
TAP	56	96	7
TAP	56	120	6
TAP	56	144	7
TAP	56	168	6
TAP	56	192	4
TAP	56	216	5
TAP	56	240	7
TAP	56	264	6
TAP	56	288	4
TAP	56	312	5
TAP	56	336	7
TAP	56	360	6
TAP	57	0	3
TAP	57	24	4
TAP	57	48	3
TAP	57	72	4
TAP	57	96	2
TAP	57	120	5
TAP	57	144	2
TAP	57	168	5
TAP	57	192	3
TAP	57	216	4
TAP	57	240	2
TAP	57	264	5
TAP	57	288	3
TAP	57	312	4
TAP	57	336	2
TAP	57	360	5
TAP	58	0	1
TAP	58	24	0
TAP	58	48	1
TAP	58	72	0
TAP	58	96	2
TAP	58	120	3
TAP	58	144	2
TAP	58	168	3
TAP	58	192	1
TAP	58	216	0
TAP	58	240	2
TAP	58	264	3
TAP	58	288	1
TAP	58	312	0
TAP	58	336	2
TAP	58	360	3
TAP	59	0	1
TAP	59	24	0
TAP	59	48	2
TAP	59	72	7
TAP	59	96	3
TAP	59	120	6
TAP	59	144	4
TAP	59	168	5
TAP	59	192	3
TAP	59	216	3
TAP	59	240	3
TAP	59	264	3
TAP	59	288	3
BRK	59	336	0
BRK	59	336	6
TAP	60	192	3
TAP	60	192	5
TAP	60	240	1
STR	60	240	3
SI_	60	240	3	96	48	7
TAP	60	288	3
TAP	60	288	5
HLD	60	336	1	144
TAP	60	336	3
TAP	61	48	6
TAP	61	96	5
TAP	61	144	4
TAP	61	192	1
TAP	61	192	3
STR	61	240	3
SI_	61	240	3	96	48	7
TAP	61	240	5
TAP	61	288	1
TAP	61	288	3
TAP	61	336	3
HLD	61	336	5	144
TAP	62	48	0
TAP	62	96	1
TAP	62	144	2
TAP	62	192	3
TAP	62	192	5
TAP	62	240	1
STR	62	240	3
SI_	62	240	3	96	48	7
TAP	62	288	3
TAP	62	288	5
TAP	62	336	1
TAP	62	336	3
TAP	63	48	6
TAP	63	72	4
TAP	63	96	5
TAP	63	144	1
TAP	63	168	3
TAP	63	192	2
STR	63	240	7
SXL	63	240	7	96	144	2
SXR	63	240	7	96	144	4
TAP	63	264	4
TAP	63	288	5
TAP	63	336	7
TAP	64	192	2
TAP	64	192	4
STR	64	240	4
SI_	64	240	4	96	48	0
TAP	64	240	6
TAP	64	288	2
TAP	64	288	4
TAP	64	336	4
HLD	64	336	6	144
TAP	65	48	1
TAP	65	96	2
TAP	65	144	3
TAP	65	192	4
TAP	65	192	6
TAP	65	240	2
STR	65	240	4
SI_	65	240	4	96	48	0
TAP	65	288	4
TAP	65	288	6
HLD	65	336	2	144
TAP	65	336	4
TAP	66	48	7
TAP	66	96	6
TAP	66	144	5
TAP	66	192	2
TAP	66	192	4
STR	66	240	4
SI_	66	240	4	96	48	0
TAP	66	240	6
TAP	66	288	2
TAP	66	288	4
TAP	66	336	4
TAP	66	336	6
STR	67	48	7
SI_	67	48	7	96	48	3
TAP	67	96	0
STR	67	144	1
SI_	67	144	1	96	48	5
TAP	67	144	7
TAP	67	192	2
STR	67	240	0
SXL	67	240	0	96	144	3
SXR	67	240	0	96	144	5
TAP	67	240	1
TAP	67	288	7
TAP	67	336	0
TAP	68	192	2
TAP	68	192	4
STR	68	240	4
SUL	68	240	4	96	96	1
TAP	68	240	6
TAP	68	288	2
TAP	68	288	4
TAP	68	336	4
TAP	68	336	6
TAP	69	48	0
TAP	69	96	7
TAP	69	144	6
TAP	69	192	2
TAP	69	192	4
STR	69	240	4
SUL	69	240	4	96	96	1
TAP	69	240	6
TAP	69	288	2
TAP	69	288	4
TAP	69	336	4
TAP	69	336	6
TAP	70	48	0
TAP	70	96	7
TAP	70	144	6
TAP	70	192	2
TAP	70	192	4
STR	70	240	4
SI_	70	240	4	96	48	0
TAP	70	240	6
TAP	70	288	2
TAP	70	288	4
TAP	70	336	4
TAP	70	336	6
TAP	71	48	1
TAP	71	72	3
TAP	71	96	2
TAP	71	144	6
TAP	71	168	4
TAP	71	192	5
STR	71	240	0
SXL	71	240	0	96	144	3
SXR	71	240	0	96	144	5
TAP	71	264	3
TAP	71	288	2
TAP	71	336	0
TAP	72	192	3
TAP	72	192	5
TAP	72	240	1
STR	72	240	3
SUR	72	240	3	96	96	6
TAP	72	288	3
TAP	72	288	5
TAP	72	336	1
TAP	72	336	3
TAP	73	48	7
TAP	73	96	0
TAP	73	144	1
TAP	73	192	3
TAP	73	192	5
TAP	73	240	1
STR	73	240	3
SUR	73	240	3	96	96	6
TAP	73	288	3
TAP	73	288	5
TAP	73	336	1
TAP	73	336	3
TAP	74	48	7
TAP	74	96	0
TAP	74	144	1
TAP	74	192	3
TAP	74	192	5
TAP	74	240	1
STR	74	240	3
SI_	74	240	3	96	48	7
TAP	74	288	3
TAP	74	288	5
TAP	74	336	1
TAP	74	336	3
TAP	75	48	4
TAP	75	48	7
TAP	75	72	6
TAP	75	96	5
TAP	75	144	0
TAP	75	144	3
TAP	75	168	1
TAP	75	192	2
TAP	75	240	4
STR	75	240	7
SI_	75	240	7	96	48	2
STR	75	264	6
SI_	75	264	6	96	24	2
TAP	75	288	5
BRK	75	336	6
BRK	75	336	7
TAP	76	48	1
TAP	76	72	0
STR	76	96	7
SI_	76	96	7	96	48	2
STR	76	144	2
SI_	76	144	2	96	48	7
STR	76	192	7
SI_	76	192	7	96	48	5
TAP	76	240	4
TAP	76	288	3
TAP	76	336	1
TAP	76	360	0
STR	77	0	7
SCL	77	0	7	96	48	4
STR	77	48	7
SCR	77	48	7	96	48	2
STR	77	96	7
SI_	77	96	7	96	48	3
TAP	77	240	2
TAP	77	288	1
TAP	77	336	0
TAP	77	336	7
TAP	78	0	2
TAP	78	0	5
TAP	78	48	6
TAP	78	72	7
STR	78	96	0
SI_	78	96	0	96	48	5
STR	78	144	5
SI_	78	144	5	96	48	0
STR	78	192	0
SI_	78	192	0	96	48	2
TAP	78	240	3
TAP	78	288	4
TAP	78	336	6
TAP	78	360	7
STR	79	0	0
SCR	79	0	0	96	48	3
STR	79	48	0
SCL	79	48	0	96	48	5
STR	79	96	0
SI_	79	96	0	96	48	4
TAP	79	240	5
TAP	79	288	2
BRK	79	336	0
BRK	79	336	1

T_REC_TAP	732
T_REC_BRK	8
T_REC_XTP	0
T_REC_HLD	22
T_REC_XHO	0
T_REC_STR	66
T_REC_BST	2
T_REC_XST	0
T_REC_TTP	0
T_REC_THO	0
T_REC_SLD	71
T_REC_ALL	901
T_NUM_TAP	798
T_NUM_BRK	10
T_NUM_HLD	22
T_NUM_SLD	71
T_NUM_ALL	901
T_JUDGE_TAP	808
T_JUDGE_HLD	103
T_JUDGE_SLD	71
T_JUDGE_ALL	982
TTM_EACHPAIRS	159
TTM_SCR_TAP	399000
TTM_SCR_BRK	26000
TTM_SCR_HLD	22000
TTM_SCR_SLD	106500
TTM_SCR_ALL	553500
TTM_SCR_S	535950
TTM_SCR_SS	552500
TTM_RAT_ACV	10018

