VERSION	0.00.00	1.03.00
FES_MODE	0
BPM_DEF	154.000	154.000	154.000	154.000
MET_DEF	4	4
RESOLUTION	384
CLK_DEF	384
COMPATIBLE_CODE	MA2

BPM	0	0	154.000
MET	0	0	4	4

TAP	2	96	0
TAP	2	288	0
TAP	3	96	7
TAP	3	288	7
TAP	4	96	2
TAP	4	96	3
TAP	4	288	2
TAP	4	288	3
TAP	5	96	4
TAP	5	96	5
TAP	5	288	4
TAP	5	288	5
TAP	6	0	6
TAP	6	96	7
TAP	6	192	0
TAP	6	288	1
TAP	7	0	2
TAP	7	96	3
TAP	7	192	4
STR	7	288	5
SI_	7	288	5	96	576	0
HLD	7	336	5	624
TAP	10	0	7
TAP	10	96	1
TAP	10	120	6
TAP	10	144	0
TAP	10	192	2
TAP	10	192	3
TAP	10	240	4
TAP	10	240	5
TAP	10	336	2
TAP	11	0	1
TAP	11	48	0
TAP	11	96	7
TAP	11	144	6
TAP	11	192	5
TAP	11	240	4
TAP	11	288	1
TAP	11	288	6
TAP	11	336	0
TAP	11	336	7
TAP	12	0	4
TAP	12	48	0
TAP	12	96	3
TAP	12	120	7
TAP	12	144	3
STR	12	192	6
SI_	12	192	6	96	48	1
TAP	12	288	2
TAP	12	312	2
TAP	12	336	2
TAP	13	0	3
TAP	13	0	7
TAP	13	48	2
TAP	13	48	6
TAP	13	96	1
TAP	13	96	5
TAP	13	144	0
TAP	13	144	4
TAP	13	240	0
TAP	13	264	7
TAP	13	288	0
TAP	13	312	7
TAP	13	336	0
TAP	13	360	7
TAP	14	0	0
TAP	14	96	6
TAP	14	120	0
TAP	14	144	7
TAP	14	192	1
HLD	14	240	4	144
TAP	14	336	5
TAP	15	0	3
TAP	15	48	6
TAP	15	96	7
TAP	15	144	0
TAP	15	192	1
TAP	15	216	0
TAP	15	240	1
TAP	15	288	6
TAP	15	336	7
TAP	16	0	1
TAP	16	24	0
TAP	16	48	2
TAP	16	96	5
TAP	16	120	4
TAP	16	144	6
TAP	16	192	2
TAP	16	216	3
TAP	16	240	1
TAP	16	288	6
TAP	16	312	7
TAP	16	336	5
TAP	17	0	1
TAP	17	24	0
TAP	17	48	2
TAP	17	72	6
TAP	17	96	7
TAP	17	120	5
TAP	17	144	2
TAP	17	168	3
TAP	17	192	1
TAP	17	216	5
TAP	17	240	4
TAP	17	264	6
TAP	17	288	0
TAP	17	312	7
TAP	17	336	1
TAP	17	360	6
TAP	18	0	3
TAP	18	48	1
TAP	18	96	7
TAP	18	144	5
TAP	18	240	1
TAP	18	264	3
TAP	18	288	1
TAP	18	336	6
STR	19	0	4
SI_	19	0	4	96	48	0
STR	19	48	5
SI_	19	48	5	96	48	1
TAP	19	240	2
TAP	19	264	7
TAP	19	288	2
TAP	19	336	5
TAP	20	0	2
TAP	20	48	4
TAP	20	96	6
TAP	20	144	0
TAP	20	240	7
TAP	20	264	1
TAP	20	288	5
TAP	20	336	3
STR	21	0	2
SI_	21	0	2	96	48	6
STR	21	48	3
SI_	21	48	3	96	48	7
TAP	21	240	1
TAP	21	288	0
TAP	22	0	6
TAP	22	0	7
TAP	22	48	2
TAP	22	48	3
TAP	22	96	0
TAP	22	144	1
TAP	22	192	2
TAP	22	240	4
TAP	22	264	3
TAP	22	288	4
TAP	22	336	3
TAP	23	0	6
TAP	23	24	5
TAP	23	48	6
STR	23	96	0
SI_	23	96	0	96	48	4
TAP	23	144	5
STR	23	192	7
SI_	23	192	7	96	48	3
TAP	23	240	2
TAP	24	0	0
TAP	24	0	1
TAP	24	48	4
TAP	24	48	5
TAP	24	96	7
TAP	24	144	6
TAP	24	192	5
TAP	24	240	3
TAP	24	264	4
TAP	24	288	3
TAP	24	336	4
TAP	25	0	1
TAP	25	24	2
TAP	25	48	1
STR	25	96	7
SI_	25	96	7	96	48	3
TAP	25	144	2
STR	25	192	0
SI_	25	192	0	96	48	4
TAP	25	240	5
TAP	26	0	6
TAP	26	48	2
TAP	26	96	5
TAP	26	144	1
TAP	26	192	0
TAP	26	216	4
TAP	26	240	2
TAP	26	288	2
TAP	26	288	6
TAP	26	336	4
TAP	26	360	0
TAP	27	0	6
TAP	27	48	2
TAP	27	48	6
TAP	27	96	1
TAP	27	120	5
TAP	27	144	3
TAP	27	192	7
TAP	27	216	3
TAP	27	240	5
TAP	27	264	1
TAP	27	288	7
TAP	28	0	2
TAP	28	48	1
TAP	28	48	3
TAP	28	96	6
TAP	28	144	5
TAP	28	144	7
TAP	28	192	1
TAP	28	216	5
TAP	28	240	3
TAP	28	288	2
TAP	28	288	4
TAP	28	336	3
TAP	28	360	7
TAP	29	0	1
TAP	29	48	0
TAP	29	48	2
TAP	29	96	1
TAP	29	120	5
TAP	29	144	3
TAP	29	192	4
TAP	29	216	2
TAP	29	240	6
TAP	29	264	0
TAP	29	288	7
TAP	30	0	2
TAP	30	48	1
TAP	30	96	0
HLD	30	144	7	144
TAP	30	192	0
TAP	30	240	1
TAP	30	288	2
TAP	30	336	5
TAP	30	360	4
TAP	31	0	5
TAP	31	48	4
TAP	31	72	6
TAP	31	96	4
TAP	31	144	7
TAP	31	168	1
TAP	31	192	5
TAP	31	240	2
TAP	31	240	3
TAP	31	288	0
TAP	31	288	1
TAP	32	0	5
TAP	32	48	6
TAP	32	96	7
HLD	32	144	0	144
TAP	32	192	7
TAP	32	240	6
TAP	32	288	5
TAP	32	336	2
TAP	32	360	3
TAP	33	0	2
TAP	33	48	3
TAP	33	72	1
TAP	33	96	3
TAP	33	144	0
TAP	33	168	6
TAP	33	192	2
TAP	33	240	4
TAP	33	240	5
TAP	33	288	6
TAP	33	288	7
TAP	34	0	0
TAP	34	48	0
TAP	34	96	5
TAP	34	144	5
TAP	34	192	2
TAP	34	240	2
TAP	34	288	1
TAP	34	336	1
TAP	35	0	6
TAP	35	24	7
TAP	35	48	5
TAP	35	72	7
TAP	35	96	6
TAP	35	144	2
TAP	35	192	3
TAP	35	216	2
TAP	35	240	4
TAP	35	264	2
TAP	35	288	3
TAP	35	336	0
TAP	36	0	5
TAP	36	24	4
TAP	36	48	5
TAP	36	96	4
TAP	36	120	3
TAP	36	144	4
TAP	36	192	3
TAP	36	216	2
TAP	36	240	3
TAP	36	288	0
TAP	36	312	7
TAP	36	336	1
TAP	36	360	6
TAP	37	0	0
TAP	37	48	1
TAP	37	72	0
TAP	37	96	2
TAP	37	144	6
TAP	37	168	7
TAP	37	192	5
TAP	37	240	3
TAP	37	264	7
TAP	37	288	2
TAP	37	336	4
TAP	37	360	0
TAP	38	0	5
TAP	38	48	1
TAP	38	72	0
TAP	38	96	1
TAP	38	144	6
TAP	38	168	7
TAP	38	192	6
TAP	38	240	2
TAP	38	264	4
TAP	38	288	2
TAP	38	312	5
TAP	38	336	2
TAP	39	0	6
TAP	39	24	7
TAP	39	48	6
TAP	39	96	7
TAP	39	120	0
TAP	39	144	7
TAP	39	192	0
TAP	39	216	1
TAP	39	240	0
TAP	39	288	3
TAP	39	312	4
TAP	39	336	3
TAP	40	0	1
TAP	40	48	0
TAP	40	72	3
TAP	40	96	2
TAP	40	144	7
TAP	40	168	4
TAP	40	192	5
TAP	40	240	2
TAP	40	264	0
TAP	40	288	1
TAP	40	336	5
TAP	41	0	1
TAP	41	0	7
TAP	41	48	1
TAP	41	96	4
TAP	41	144	4
TAP	41	192	4
TAP	41	192	6
TAP	41	240	7
TAP	41	288	0
TAP	41	336	3
TAP	42	0	1
TAP	42	24	0
TAP	42	48	2
TAP	42	72	7
TAP	42	96	4
TAP	42	144	5
TAP	42	192	6
TAP	42	216	7
TAP	42	240	5
TAP	42	264	0
TAP	42	288	3
TAP	42	336	2
TAP	43	0	0
TAP	43	24	4
TAP	43	48	1
TAP	43	72	5
TAP	43	96	2
TAP	43	120	6
TAP	43	144	3
TAP	43	168	7
TAP	43	192	1
TAP	43	216	5
TAP	43	240	3
TAP	43	264	7
TAP	43	288	0
TAP	43	336	7
TAP	43	360	0
TAP	44	0	7
TAP	44	48	1
TAP	44	72	2
TAP	44	96	1
TAP	44	144	4
TAP	44	168	3
TAP	44	192	4
TAP	44	240	6
TAP	44	264	5
TAP	44	288	6
TAP	44	336	1
TAP	44	360	0
TAP	45	0	1
TAP	45	48	5
TAP	45	72	4
TAP	45	96	5
TAP	45	144	7
TAP	45	168	6
TAP	45	192	7
TAP	45	240	3
TAP	45	264	2
TAP	45	288	3
TAP	45	312	0
TAP	45	336	7
TAP	46	0	0
TAP	46	24	3
TAP	46	48	1
TAP	46	96	6
TAP	46	96	7
TAP	46	144	3
TAP	46	144	4
TAP	46	192	3
TAP	46	216	4
TAP	46	240	3
TAP	46	288	6
TAP	46	288	7
TAP	46	336	2
TAP	46	360	3
TAP	47	0	0
TAP	47	48	5
TAP	47	72	4
TAP	47	96	7
TAP	47	144	3
TAP	47	168	4
TAP	47	192	3
TAP	47	240	6
TAP	47	264	7
TAP	47	288	6
TAP	47	312	0
TAP	47	336	6
TAP	47	360	1
TAP	48	0	5
TAP	48	24	2
TAP	48	48	5
TAP	48	96	2
TAP	48	144	5
TAP	48	192	2
TAP	48	216	5
TAP	48	240	2
TAP	48	288	5
TAP	48	336	2
TAP	49	0	4
TAP	49	24	3
TAP	49	48	4
TAP	49	96	3
TAP	49	144	4
TAP	49	192	3
TAP	49	216	4
TAP	49	240	3
TAP	49	288	4
TAP	49	336	3
TAP	50	0	6
TAP	50	24	7
TAP	50	48	5
TAP	50	96	4
TAP	50	120	5
TAP	50	144	2
TAP	50	192	3
TAP	50	216	2
TAP	50	240	0
TAP	50	288	1
TAP	50	312	0
TAP	50	336	7
TAP	51	0	1
TAP	51	24	0
TAP	51	48	2
TAP	51	96	3
TAP	51	120	2
TAP	51	144	5
TAP	51	192	4
TAP	51	216	5
TAP	51	240	7
TAP	51	288	6
TAP	51	312	7
TAP	51	336	0
TAP	52	0	5
TAP	52	0	7
TAP	52	48	6
TAP	52	96	0
TAP	52	96	2
TAP	52	144	1
TAP	52	192	3
TAP	52	192	5
TAP	52	240	4
TAP	52	288	1
TAP	52	288	3
TAP	52	336	2
TAP	53	0	5
TAP	53	24	4
TAP	53	48	5
TAP	53	96	4
TAP	53	96	5
TAP	53	144	4
TAP	53	144	5
TAP	53	192	2
TAP	53	216	3
TAP	53	240	2
TAP	53	288	2
TAP	53	288	3
TAP	53	336	2
TAP	53	336	3
TAP	54	0	1
TAP	54	24	7
TAP	54	48	0
TAP	54	72	6
TAP	54	96	5
TAP	54	96	7
TAP	54	144	5
TAP	54	144	7
TAP	54	192	5
TAP	54	216	3
TAP	54	240	4
TAP	54	264	2
TAP	54	288	1
TAP	54	288	3
TAP	54	336	1
TAP	54	336	3
TAP	55	0	2
TAP	55	24	3
TAP	55	48	1
TAP	55	72	3
TAP	55	96	2
TAP	55	96	4
TAP	55	144	2
TAP	55	144	4
TAP	55	192	5
TAP	55	216	4
TAP	55	240	6
TAP	55	264	4
TAP	55	288	3
TAP	55	288	5
TAP	55	336	3
TAP	55	336	5
TAP	56	0	2
TAP	56	32	3
TAP	56	64	4
TAP	56	96	6
TAP	56	128	5
TAP	56	160	4
TAP	56	192	1
TAP	56	224	2
TAP	56	256	3
TAP	56	288	5
TAP	56	320	4
TAP	56	352	3
TAP	57	0	1
TAP	57	32	2
TAP	57	64	3
TAP	57	96	0
TAP	57	128	7
TAP	57	160	6
TAP	57	192	4
TAP	57	224	3
TAP	57	256	2
TAP	57	288	0
TAP	57	288	7
TAP	58	0	4
TAP	58	24	5
TAP	58	48	4
TAP	58	72	5
TAP	58	96	3
TAP	58	120	6
TAP	58	144	3
TAP	58	168	6
TAP	58	192	2
TAP	58	216	7
TAP	58	240	2
TAP	58	264	7
TAP	58	288	1
TAP	58	312	0
TAP	58	336	1
TAP	58	360	0
TAP	59	0	2
TAP	59	24	6
TAP	59	48	1
TAP	59	72	5
TAP	59	96	0
TAP	59	120	4
TAP	59	144	7
TAP	59	168	3
TAP	59	192	1
TAP	59	216	5
TAP	59	240	3
TAP	59	264	7
TAP	59	288	0
TAP	59	312	7
HLD	59	336	1	144
STR	60	192	3
SI_	60	192	3	96	48	0
STR	60	240	5
SI_	60	240	5	96	48	0
TAP	60	288	3
TAP	60	336	5
TAP	61	48	3
TAP	61	48	7
TAP	61	96	0
TAP	61	96	4
TAP	61	144	1
TAP	61	144	5
STR	61	192	4
SI_	61	192	4	96	48	7
STR	61	240	2
SI_	61	240	2	96	48	7
TAP	61	288	4
TAP	61	336	2
TAP	62	48	0
TAP	62	48	4
TAP	62	96	3
TAP	62	96	7
TAP	62	144	2
TAP	62	144	6
STR	62	192	3
SI_	62	192	3	96	48	7
STR	62	240	4
SI_	62	240	4	96	48	0
TAP	62	288	3
TAP	62	336	4
TAP	63	48	2
TAP	63	72	3
TAP	63	96	1
TAP	63	144	5
TAP	63	168	4
TAP	63	192	6
TAP	63	240	1
TAP	63	264	0
TAP	63	288	2
TAP	63	336	6
TAP	64	48	0
TAP	64	48	1
TAP	64	144	6
TAP	64	144	7
STR	64	192	3
SI_	64	192	3	96	48	6
STR	64	240	3
SI_	64	240	3	96	48	0
TAP	64	288	3
TAP	64	336	3
TAP	65	48	6
TAP	65	48	7
TAP	65	96	4
TAP	65	96	5
TAP	65	144	2
TAP	65	144	3
STR	65	192	4
SI_	65	192	4	96	48	1
STR	65	240	4
SI_	65	240	4	96	48	7
TAP	65	288	4
TAP	65	336	4
TAP	66	48	0
TAP	66	48	1
TAP	66	96	2
TAP	66	96	3
TAP	66	144	4
TAP	66	144	5
STR	66	192	2
SI_	66	192	2	96	48	6
STR	66	240	4
SI_	66	240	4	96	48	0
TAP	66	288	2
TAP	66	336	4
TAP	67	48	4
TAP	67	72	3
TAP	67	96	5
TAP	67	144	3
TAP	67	168	4
TAP	67	192	2
TAP	67	240	5
TAP	67	264	3
TAP	67	288	4
TAP	67	336	2
TAP	68	192	2
TAP	68	192	5
STR	68	240	3
SI_	68	240	3	96	48	0
STR	68	240	4
SI_	68	240	4	96	48	7
TAP	68	288	1
TAP	68	288	6
TAP	69	48	0
TAP	69	48	1
TAP	69	96	2
TAP	69	96	7
TAP	69	144	0
TAP	69	144	1
TAP	69	192	3
TAP	69	192	6
STR	69	240	4
SI_	69	240	4	96	48	1
STR	69	240	5
SI_	69	240	5	96	48	0
TAP	69	288	2
TAP	69	288	7
TAP	70	48	6
TAP	70	48	7
TAP	70	96	0
TAP	70	96	5
TAP	70	144	6
TAP	70	144	7
TAP	70	192	1
TAP	70	192	4
STR	70	240	2
SI_	70	240	2	96	48	7
STR	70	240	3
SI_	70	240	3	96	48	6
TAP	70	288	0
TAP	70	288	5
TAP	71	48	0
TAP	71	96	0
TAP	71	144	2
TAP	71	192	2
TAP	71	240	4
TAP	71	288	4
HLD	71	336	6	144
TAP	72	192	1
TAP	72	192	5
STR	72	240	2
SI_	72	240	2	96	48	7
STR	72	240	6
SI_	72	240	6	96	48	3
TAP	72	288	0
TAP	72	288	4
TAP	73	48	0
TAP	73	48	4
TAP	73	96	1
TAP	73	96	5
TAP	73	144	2
TAP	73	144	6
TAP	73	192	3
TAP	73	192	7
STR	73	240	0
SI_	73	240	0	96	48	5
STR	73	240	4
SI_	73	240	4	96	48	1
TAP	73	288	2
TAP	73	288	6
TAP	74	48	2
TAP	74	48	6
TAP	74	96	3
TAP	74	96	7
TAP	74	144	0
TAP	74	144	4
STR	74	192	4
SI_	74	192	4	96	48	1
STR	74	240	0
SI_	74	240	0	96	48	4
TAP	75	48	6
TAP	75	96	7
TAP	75	144	0
TAP	75	192	4
TAP	75	240	3
TAP	75	288	2
TAP	75	336	1
TAP	75	336	5
TAP	76	48	2
TAP	76	72	3
TAP	76	96	1
TAP	76	144	7
TAP	76	192	5
TAP	76	240	3
TAP	76	336	5
TAP	76	360	4
TAP	77	0	6
TAP	77	48	0
TAP	77	96	2
TAP	77	144	4
TAP	78	48	2
TAP	78	72	4
STR	78	96	3
SI_	78	96	3	96	48	7
STR	78	144	0
SI_	78	144	0	96	48	4
TAP	78	336	6
TAP	78	360	0
STR	79	0	7
SI_	79	0	7	96	48	3
STR	79	48	4
SI_	79	48	4	96	48	0
TAP	79	192	5
TAP	79	240	6
TAP	79	288	7
BRK	79	336	0
BRK	79	336	1

T_REC_TAP	701
T_REC_BRK	2
T_REC_XTP	0
T_REC_HLD	6
T_REC_XHO	0
T_REC_STR	38
T_REC_BST	0
T_REC_XST	0
T_REC_TTP	0
T_REC_THO	0
T_REC_SLD	38
T_REC_ALL	785
T_NUM_TAP	739
T_NUM_BRK	2
T_NUM_HLD	6
T_NUM_SLD	38
T_NUM_ALL	785
T_JUDGE_TAP	741
T_JUDGE_HLD	28
T_JUDGE_SLD	38
T_JUDGE_ALL	807
TTM_EACHPAIRS	91
TTM_SCR_TAP	369500
TTM_SCR_BRK	5200
TTM_SCR_HLD	6000
TTM_SCR_SLD	57000
TTM_SCR_ALL	437700
TTM_SCR_S	424400
TTM_SCR_SS	437500
TTM_RAT_ACV	10004

