VERSION	0.00.00	1.03.00
FES_MODE	0
BPM_DEF	154.000	154.000	154.000	154.000
MET_DEF	4	4
RESOLUTION	384
CLK_DEF	384
COMPATIBLE_CODE	MA2

BPM	0	0	154.000
MET	0	0	4	4

HLD	7	336	0	720
TAP	10	0	0
TAP	10	96	0
TAP	10	192	7
TAP	10	288	7
TAP	11	0	6
TAP	11	96	6
TAP	11	192	5
TAP	11	288	5
TAP	12	48	0
TAP	12	96	0
TAP	12	192	1
TAP	13	0	0
TAP	13	144	7
TAP	14	0	7
TAP	14	96	7
TAP	14	192	0
TAP	14	288	0
TAP	15	0	1
TAP	15	96	1
TAP	15	192	2
TAP	15	288	2
TAP	16	0	0
TAP	16	96	7
TAP	16	192	6
HLD	17	0	0	96
HLD	17	96	2	96
HLD	17	192	4	96
HLD	17	288	6	96
TAP	18	0	0
TAP	18	96	1
TAP	18	144	0
TAP	18	240	7
TAP	19	0	6
TAP	19	96	6
HLD	19	144	5	144
TAP	20	0	4
TAP	20	96	3
TAP	20	144	4
TAP	20	240	5
TAP	21	0	6
TAP	21	48	6
HLD	21	144	7	144
TAP	22	0	0
TAP	22	48	0
TAP	22	240	7
TAP	22	288	6
TAP	22	336	5
TAP	23	0	4
TAP	23	48	3
TAP	24	0	1
TAP	24	48	1
TAP	24	240	2
TAP	24	288	3
TAP	24	336	4
TAP	25	0	5
TAP	25	48	6
TAP	26	0	7
TAP	26	48	7
TAP	26	96	5
TAP	26	144	5
TAP	26	288	1
TAP	26	336	1
TAP	27	0	3
TAP	27	48	3
TAP	27	144	0
TAP	27	192	7
TAP	27	240	6
TAP	27	288	5
TAP	28	0	3
TAP	28	48	3
TAP	28	96	1
TAP	28	144	1
TAP	28	288	4
TAP	28	336	4
TAP	29	0	6
TAP	29	48	6
TAP	29	144	6
TAP	29	192	4
TAP	29	240	2
TAP	29	288	0
STR	30	0	6
SI_	30	0	6	96	48	2
STR	30	144	7
SI_	30	144	7	96	48	3
STR	30	288	0
SI_	30	288	0	96	48	4
TAP	31	48	5
TAP	31	96	4
TAP	31	144	3
TAP	31	192	2
HLD	31	240	1	144
STR	32	0	0
SI_	32	0	0	96	48	4
STR	32	144	7
SI_	32	144	7	96	48	3
STR	32	288	6
SI_	32	288	6	96	48	2
TAP	33	48	1
TAP	33	96	3
TAP	33	144	5
TAP	33	192	7
HLD	33	240	1	144
BRK	34	0	7
TAP	34	48	7
TAP	34	96	7
TAP	34	144	7
TAP	34	192	0
TAP	34	240	0
TAP	34	288	0
TAP	34	336	0
TAP	35	0	6
TAP	35	0	7
TAP	35	48	6
TAP	35	96	7
TAP	35	144	6
TAP	35	192	0
TAP	35	192	1
TAP	35	240	1
TAP	35	288	0
TAP	35	336	1
TAP	36	0	2
TAP	36	0	3
TAP	36	48	2
TAP	36	96	4
TAP	36	96	5
TAP	36	144	5
TAP	36	192	2
TAP	36	192	3
TAP	36	240	2
TAP	36	288	4
TAP	36	288	5
TAP	36	336	5
TAP	36	360	4
TAP	37	0	5
TAP	37	48	2
TAP	37	72	3
TAP	37	96	2
TAP	37	144	5
TAP	37	168	4
TAP	37	192	5
TAP	37	240	2
TAP	37	264	3
TAP	37	288	2
TAP	37	336	5
TAP	37	360	4
TAP	38	0	5
TAP	38	48	2
TAP	38	72	3
TAP	38	96	2
TAP	38	144	5
TAP	38	168	4
TAP	38	192	5
TAP	38	240	2
TAP	38	264	3
TAP	38	288	2
TAP	38	336	4
TAP	39	0	5
TAP	39	48	6
TAP	39	96	7
TAP	39	144	0
TAP	39	192	1
TAP	39	240	2
TAP	39	288	3
TAP	39	336	5
TAP	39	360	4
TAP	40	0	5
TAP	40	48	5
TAP	40	72	4
TAP	40	96	5
TAP	40	144	2
TAP	40	168	3
TAP	40	192	2
TAP	40	240	2
TAP	40	264	3
TAP	40	288	2
TAP	40	336	5
TAP	40	360	4
TAP	41	0	5
TAP	41	48	2
TAP	41	96	3
TAP	41	144	4
TAP	41	192	5
TAP	41	240	6
TAP	41	288	7
TAP	41	336	0
TAP	42	0	0
TAP	42	48	2
TAP	42	96	1
TAP	42	144	1
TAP	42	192	7
TAP	42	240	5
TAP	42	288	6
TAP	42	336	6
TAP	43	0	0
TAP	43	48	1
TAP	43	96	0
TAP	43	144	7
TAP	43	192	6
TAP	43	240	7
TAP	43	288	0
TAP	43	336	6
TAP	43	360	7
TAP	44	0	6
TAP	44	48	1
TAP	44	72	0
TAP	44	96	1
TAP	44	144	6
TAP	44	168	7
TAP	44	192	6
TAP	44	240	1
TAP	44	264	0
TAP	44	288	1
TAP	44	336	6
TAP	44	360	7
TAP	45	0	6
TAP	45	48	1
TAP	45	72	0
TAP	45	96	1
TAP	45	144	6
TAP	45	168	7
TAP	45	192	6
TAP	45	240	1
TAP	45	264	0
TAP	45	288	1
TAP	45	336	1
TAP	46	0	0
TAP	46	48	7
TAP	46	96	6
TAP	46	144	5
TAP	46	192	4
TAP	46	240	3
TAP	46	288	2
TAP	46	336	1
TAP	47	0	0
TAP	47	48	0
TAP	47	96	1
TAP	47	144	2
TAP	47	192	3
TAP	47	240	4
TAP	47	288	5
TAP	47	336	6
HLD	48	0	7	96
TAP	48	96	0
TAP	48	144	0
HLD	48	192	2	96
TAP	48	288	3
TAP	48	336	3
HLD	49	0	0	96
TAP	49	96	7
TAP	49	144	7
HLD	49	192	5	96
TAP	49	288	4
TAP	49	336	4
TAP	50	0	6
TAP	50	48	7
TAP	50	96	6
TAP	50	144	6
TAP	50	192	3
TAP	50	240	2
TAP	50	288	3
TAP	50	336	3
TAP	51	0	6
TAP	51	48	7
TAP	51	96	6
TAP	51	144	6
TAP	51	192	3
TAP	51	240	2
TAP	51	288	3
TAP	51	336	3
TAP	52	0	4
TAP	52	48	5
TAP	52	96	6
TAP	52	144	6
TAP	52	192	4
TAP	52	240	3
TAP	52	288	2
TAP	52	336	1
TAP	53	0	0
TAP	53	48	1
TAP	53	96	2
TAP	53	144	3
TAP	53	192	4
TAP	53	240	5
STR	53	288	6
SI_	53	288	6	96	96	3
TAP	53	336	6
STR	54	96	2
SI_	54	96	2	96	96	7
TAP	54	144	2
STR	54	288	5
SI_	54	288	5	96	96	0
TAP	54	336	5
STR	55	96	1
SI_	55	96	1	96	96	4
TAP	55	144	1
TAP	55	288	5
TAP	55	336	5
TAP	56	0	2
TAP	56	48	3
TAP	56	96	2
TAP	56	144	1
TAP	56	192	2
TAP	56	240	3
TAP	56	288	2
TAP	56	336	2
TAP	57	0	5
TAP	57	48	4
TAP	57	96	5
TAP	57	144	6
TAP	57	192	5
TAP	57	240	4
TAP	57	288	5
TAP	57	336	5
TAP	58	0	1
TAP	58	48	1
TAP	58	96	6
TAP	58	144	6
TAP	58	192	0
TAP	58	240	0
TAP	58	288	7
TAP	58	336	7
TAP	59	0	0
TAP	59	24	7
TAP	59	48	0
TAP	59	72	7
TAP	59	96	0
TAP	59	120	7
TAP	59	144	0
TAP	59	168	7
TAP	59	192	0
TAP	59	216	7
TAP	59	240	0
TAP	59	264	7
TAP	59	288	0
TAP	59	312	7
HLD	59	336	0	240
TAP	60	192	7
TAP	60	240	0
TAP	60	288	7
HLD	60	336	7	144
TAP	61	192	7
TAP	61	240	6
TAP	61	288	7
HLD	61	336	0	144
TAP	62	192	1
TAP	62	240	2
TAP	62	288	1
HLD	62	336	0	96
TAP	63	48	7
TAP	63	96	7
TAP	63	144	6
TAP	63	192	6
TAP	63	240	5
TAP	63	288	5
HLD	63	336	4	144
TAP	64	192	5
TAP	64	240	6
TAP	64	288	7
HLD	64	336	0	144
TAP	65	192	3
TAP	65	240	2
TAP	65	288	1
HLD	65	336	0	144
TAP	66	192	2
TAP	66	240	3
TAP	66	288	4
HLD	66	336	5	96
TAP	67	48	4
TAP	67	96	4
TAP	67	144	2
TAP	67	192	2
TAP	67	240	0
TAP	67	288	0
HLD	67	336	7	144
TAP	68	192	0
TAP	68	240	1
TAP	68	288	0
HLD	68	336	7	96
TAP	69	48	6
TAP	69	96	5
TAP	69	144	6
TAP	69	192	0
TAP	69	240	1
TAP	69	288	2
HLD	69	336	3	96
TAP	70	48	1
TAP	70	96	0
TAP	70	144	7
TAP	70	192	6
TAP	70	240	5
TAP	70	288	6
HLD	70	336	7	96
TAP	71	48	6
TAP	71	96	5
TAP	71	144	4
TAP	71	192	3
TAP	71	240	2
TAP	71	288	1
HLD	71	336	0	144
TAP	72	192	7
TAP	72	240	6
TAP	72	288	7
HLD	72	336	0	96
TAP	73	48	1
TAP	73	96	2
TAP	73	144	1
TAP	73	192	7
TAP	73	240	6
TAP	73	288	5
HLD	73	336	4	96
TAP	74	48	3
TAP	74	96	2
TAP	74	144	3
TAP	74	192	4
TAP	74	240	5
TAP	74	288	6
HLD	74	336	7	96
TAP	75	48	0
TAP	75	96	0
TAP	75	144	2
TAP	75	192	2
TAP	75	240	4
TAP	75	288	4
HLD	75	336	6	96
TAP	76	48	5
TAP	76	96	5
TAP	76	144	3
TAP	76	192	3
HLD	76	240	1	96
TAP	76	336	2
TAP	77	0	2
TAP	77	48	4
TAP	77	96	4
HLD	77	144	6	96
TAP	78	48	5
TAP	78	96	4
TAP	78	144	3
TAP	78	192	2
HLD	78	240	1	96
TAP	78	336	3
TAP	79	0	4
TAP	79	48	5
TAP	79	96	6
HLD	79	144	7	96
BRK	79	336	7

T_REC_TAP	390
T_REC_BRK	2
T_REC_XTP	0
T_REC_HLD	34
T_REC_XHO	0
T_REC_STR	10
T_REC_BST	0
T_REC_XST	0
T_REC_TTP	0
T_REC_THO	0
T_REC_SLD	10
T_REC_ALL	446
T_NUM_TAP	400
T_NUM_BRK	2
T_NUM_HLD	34
T_NUM_SLD	10
T_NUM_ALL	446
T_JUDGE_TAP	402
T_JUDGE_HLD	95
T_JUDGE_SLD	10
T_JUDGE_ALL	507
TTM_EACHPAIRS	6
TTM_SCR_TAP	200000
TTM_SCR_BRK	5200
TTM_SCR_HLD	34000
TTM_SCR_SLD	15000
TTM_SCR_ALL	254200
TTM_SCR_S	246400
TTM_SCR_SS	254000
TTM_RAT_ACV	10007

