VERSION	0.00.00	1.03.00
FES_MODE	0
BPM_DEF	154.000	154.000	154.000	154.000
MET_DEF	4	4
RESOLUTION	384
CLK_DEF	384
COMPATIBLE_CODE	MA2

BPM	0	0	154.000
MET	0	0	4	4

TAP	2	96	0
TAP	2	288	0
TAP	3	96	7
TAP	3	288	7
TAP	4	96	2
TAP	4	288	2
TAP	5	96	5
TAP	5	288	5
TAP	6	96	3
TAP	6	288	3
TAP	7	96	6
TAP	7	288	6
HLD	8	0	0	576
TAP	10	0	0
TAP	10	96	0
TAP	10	192	0
TAP	10	288	0
TAP	11	0	6
TAP	11	96	6
TAP	11	192	6
TAP	11	288	6
TAP	12	0	2
TAP	12	96	2
TAP	12	192	2
HLD	13	0	4	144
TAP	14	0	7
TAP	14	96	7
TAP	14	192	7
TAP	14	288	7
TAP	15	0	1
TAP	15	96	1
TAP	15	192	1
TAP	15	288	1
TAP	16	0	5
TAP	16	97	5
TAP	16	192	3
TAP	16	288	3
TAP	17	0	2
TAP	17	0	3
TAP	17	96	4
TAP	17	96	5
TAP	17	192	6
TAP	17	192	7
BRK	17	288	0
BRK	17	288	1
TAP	18	0	1
TAP	18	96	1
TAP	18	192	0
TAP	18	288	0
TAP	19	0	6
TAP	19	96	6
TAP	19	192	7
TAP	19	288	7
TAP	20	0	2
TAP	20	96	2
TAP	20	192	3
TAP	20	288	3
TAP	21	0	5
TAP	21	96	5
TAP	21	192	4
TAP	21	288	4
TAP	22	0	3
TAP	22	0	6
TAP	22	288	3
TAP	22	288	6
TAP	23	0	4
TAP	23	0	5
TAP	24	0	1
TAP	24	0	4
TAP	24	288	1
TAP	24	288	4
TAP	25	0	2
TAP	25	0	3
STR	26	0	0
SI_	26	0	0	96	96	3
STR	26	192	7
SI_	26	192	7	96	96	4
TAP	27	0	1
TAP	27	96	6
TAP	27	192	0
TAP	27	192	7
BRK	27	288	1
BRK	27	288	6
STR	28	0	5
SI_	28	0	5	96	96	0
STR	28	192	4
SI_	28	192	4	96	96	1
TAP	29	0	0
TAP	29	96	1
TAP	29	192	2
TAP	29	192	7
BRK	29	288	0
BRK	29	288	1
HLD	30	0	2	96
HLD	30	192	3	96
HLD	31	0	4	96
HLD	31	192	5	96
HLD	32	0	4	96
HLD	32	192	3	96
HLD	33	0	2	96
HLD	33	192	1	96
TAP	34	0	0
TAP	34	96	0
TAP	34	192	1
TAP	34	288	1
TAP	35	0	2
TAP	35	96	2
TAP	35	96	3
TAP	35	192	2
TAP	35	288	1
TAP	35	288	3
TAP	36	0	7
TAP	36	96	7
TAP	36	192	6
TAP	36	288	6
TAP	37	0	5
TAP	37	96	4
TAP	37	96	5
TAP	37	192	5
TAP	37	288	4
TAP	37	288	6
TAP	38	0	2
TAP	38	96	2
TAP	38	192	4
TAP	38	288	4
TAP	39	0	6
TAP	39	0	7
TAP	39	96	6
TAP	39	96	7
TAP	39	192	0
TAP	39	192	1
TAP	39	288	0
TAP	39	288	1
TAP	40	0	7
TAP	40	96	7
TAP	40	192	5
TAP	40	288	5
TAP	41	0	3
TAP	41	96	3
TAP	41	192	1
TAP	41	288	1
TAP	42	0	2
TAP	42	96	3
TAP	42	192	2
TAP	42	288	3
TAP	43	0	5
TAP	43	96	4
TAP	43	192	5
TAP	43	288	4
TAP	44	0	6
TAP	44	0	7
TAP	44	96	6
TAP	44	96	7
TAP	44	192	0
TAP	44	192	1
TAP	44	288	0
TAP	44	288	1
TAP	45	0	2
TAP	45	0	3
TAP	45	96	4
TAP	45	96	5
TAP	45	192	2
TAP	45	192	3
TAP	45	288	4
TAP	45	288	5
TAP	46	0	2
TAP	46	96	1
TAP	46	192	0
TAP	46	288	7
TAP	47	0	5
TAP	47	96	6
TAP	47	192	7
TAP	47	288	0
TAP	48	0	2
TAP	48	96	3
TAP	48	192	5
TAP	48	288	4
TAP	49	0	1
TAP	49	96	3
TAP	49	192	6
TAP	49	288	4
TAP	50	0	2
TAP	50	96	2
TAP	50	96	3
TAP	50	192	5
TAP	50	288	4
TAP	50	288	5
TAP	51	0	2
TAP	51	96	1
TAP	51	96	3
TAP	51	192	5
TAP	51	288	4
TAP	51	288	6
TAP	52	0	1
TAP	52	96	0
TAP	52	192	7
TAP	52	288	6
TAP	53	0	2
TAP	53	96	3
TAP	53	192	4
TAP	53	288	5
TAP	54	0	6
TAP	54	192	6
TAP	55	0	1
TAP	55	192	1
TAP	56	0	7
TAP	56	192	7
TAP	57	0	0
TAP	57	192	0
TAP	58	0	0
TAP	58	0	1
TAP	58	96	2
TAP	58	96	3
TAP	58	192	4
TAP	58	192	5
TAP	58	288	6
TAP	58	288	7
TAP	59	0	6
TAP	59	0	7
TAP	59	96	4
TAP	59	96	5
TAP	59	192	2
TAP	59	192	3
BRK	59	288	0
BRK	59	288	1
TAP	60	192	2
TAP	60	288	5
TAP	61	0	3
TAP	61	96	2
TAP	61	192	1
TAP	61	288	0
TAP	61	288	7
TAP	62	0	7
TAP	62	96	6
TAP	62	192	5
TAP	62	288	3
TAP	62	288	4
STR	63	0	3
SI_	63	0	3	96	96	0
STR	63	192	4
SI_	63	192	4	96	96	7
STR	64	0	0
SI_	64	0	0	96	96	4
STR	64	192	7
SI_	64	192	7	96	96	3
TAP	65	0	0
TAP	65	96	1
TAP	65	192	2
TAP	65	288	3
TAP	65	288	4
TAP	66	0	4
TAP	66	96	5
TAP	66	192	6
TAP	66	288	0
TAP	66	288	7
HLD	67	0	0	96
HLD	67	192	2	96
HLD	68	0	4	96
TAP	68	192	6
BRK	68	288	6
TAP	69	0	1
TAP	69	96	0
TAP	69	192	1
TAP	69	288	0
TAP	70	0	4
TAP	70	96	5
TAP	70	192	4
TAP	70	288	5
TAP	71	0	2
TAP	71	96	3
TAP	71	192	2
TAP	71	288	3
TAP	72	0	6
TAP	72	96	7
TAP	72	192	6
BRK	72	288	6
BRK	72	288	7
STR	73	0	0
SI_	73	0	0	96	96	3
STR	73	192	6
SI_	73	192	6	96	96	1
STR	74	0	2
SI_	74	0	2	96	96	5
STR	74	192	7
SI_	74	192	7	96	96	4
TAP	75	0	1
TAP	75	96	0
TAP	75	192	7
TAP	75	288	6
TAP	76	0	5
TAP	76	96	4
TAP	76	192	3
TAP	76	288	2
TAP	77	0	0
TAP	77	48	0
TAP	77	96	0
TAP	77	192	7
TAP	77	240	7
TAP	77	288	7
TAP	78	0	2
TAP	78	96	3
TAP	78	192	4
TAP	78	288	5
TAP	79	0	7
TAP	79	48	7
TAP	79	96	7
TAP	79	192	0
TAP	79	240	0
TAP	79	288	0
BRK	79	336	0

T_REC_TAP	261
T_REC_BRK	12
T_REC_XTP	0
T_REC_HLD	13
T_REC_XHO	0
T_REC_STR	12
T_REC_BST	0
T_REC_XST	0
T_REC_TTP	0
T_REC_THO	0
T_REC_SLD	12
T_REC_ALL	310
T_NUM_TAP	273
T_NUM_BRK	12
T_NUM_HLD	13
T_NUM_SLD	12
T_NUM_ALL	310
T_JUDGE_TAP	285
T_JUDGE_HLD	37
T_JUDGE_SLD	12
T_JUDGE_ALL	334
TTM_EACHPAIRS	47
TTM_SCR_TAP	136500
TTM_SCR_BRK	31200
TTM_SCR_HLD	13000
TTM_SCR_SLD	18000
TTM_SCR_ALL	198700
TTM_SCR_S	191600
TTM_SCR_SS	197500
TTM_RAT_ACV	10060

