VERSION	0.00.00	1.03.00
FES_MODE	0
BPM_DEF	154.000	154.000	154.000	154.000
MET_DEF	4	4
RESOLUTION	384
CLK_DEF	384
COMPATIBLE_CODE	MA2

BPM	0	0	154.000
MET	0	0	4	4

STR	8	192	0
SI_	8	192	0	96	192	4
TAP	10	0	4
TAP	11	0	5
TAP	12	0	5
TAP	12	192	6
TAP	13	0	7
TAP	13	192	0
TAP	14	0	0
TAP	15	0	1
TAP	16	0	1
TAP	16	192	2
TAP	17	0	3
TAP	17	192	4
TAP	18	0	4
TAP	18	96	4
TAP	19	0	2
TAP	19	192	3
TAP	20	0	3
TAP	20	96	3
TAP	21	0	5
TAP	21	192	4
TAP	22	0	5
TAP	22	288	4
TAP	23	0	4
TAP	24	0	2
TAP	24	288	3
TAP	25	0	3
TAP	26	0	3
TAP	26	96	3
TAP	27	0	2
TAP	27	96	2
TAP	28	0	1
TAP	28	96	1
TAP	29	0	0
TAP	29	96	0
HLD	30	0	7	192
HLD	31	0	6	192
HLD	32	0	5	192
HLD	33	0	4	192
TAP	34	0	3
TAP	35	0	2
TAP	35	192	1
TAP	36	0	0
TAP	36	192	7
TAP	37	0	6
TAP	37	96	6
TAP	37	192	6
TAP	38	0	5
TAP	38	96	5
TAP	38	192	5
TAP	39	0	4
TAP	39	96	4
TAP	39	192	4
TAP	40	0	3
TAP	40	192	2
TAP	40	288	2
HLD	41	0	2	192
TAP	42	0	1
TAP	42	192	0
TAP	43	0	7
TAP	43	192	0
TAP	44	0	0
TAP	44	96	0
TAP	44	192	0
TAP	45	0	1
TAP	45	96	1
TAP	45	192	1
TAP	46	0	2
TAP	46	192	3
TAP	47	0	4
TAP	47	192	5
TAP	48	0	4
TAP	48	192	2
TAP	49	0	4
TAP	49	192	2
TAP	50	0	3
TAP	50	192	5
TAP	51	0	3
TAP	51	192	5
TAP	52	0	6
TAP	52	96	6
TAP	52	192	6
TAP	53	0	7
TAP	53	96	7
TAP	53	192	7
HLD	54	0	0	192
HLD	55	0	1	192
TAP	56	0	0
TAP	56	0	1
TAP	56	192	0
TAP	56	192	1
TAP	57	0	6
TAP	57	0	7
TAP	57	192	6
TAP	57	192	7
STR	58	0	0
SI_	58	0	0	96	192	4
STR	59	0	7
SI_	59	0	7	96	192	3
BRK	60	0	0
TAP	61	0	7
TAP	61	192	6
TAP	62	0	5
TAP	62	192	4
TAP	63	0	3
TAP	63	192	3
TAP	63	288	3
TAP	65	0	4
TAP	65	192	3
TAP	66	0	2
TAP	66	192	1
TAP	67	0	0
TAP	67	192	0
TAP	67	288	0
TAP	69	0	1
TAP	69	192	0
TAP	70	0	7
TAP	70	192	6
TAP	71	0	5
TAP	71	192	5
TAP	71	288	5
TAP	73	0	4
TAP	73	192	3
TAP	74	0	2
TAP	74	192	1
TAP	75	0	0
TAP	75	192	7
TAP	75	288	7
STR	76	0	7
SI_	76	0	7	96	192	4
STR	77	0	0
SI_	77	0	0	96	192	3
STR	78	0	7
SI_	78	0	7	96	192	3
STR	79	0	0
SI_	79	0	0	96	192	4

T_REC_TAP	115
T_REC_BRK	1
T_REC_XTP	0
T_REC_HLD	7
T_REC_XHO	0
T_REC_STR	7
T_REC_BST	0
T_REC_XST	0
T_REC_TTP	0
T_REC_THO	0
T_REC_SLD	7
T_REC_ALL	137
T_NUM_TAP	122
T_NUM_BRK	1
T_NUM_HLD	7
T_NUM_SLD	7
T_NUM_ALL	137
T_JUDGE_TAP	123
T_JUDGE_HLD	28
T_JUDGE_SLD	7
T_JUDGE_ALL	158
TTM_EACHPAIRS	4
TTM_SCR_TAP	61000
TTM_SCR_BRK	2600
TTM_SCR_HLD	7000
TTM_SCR_SLD	10500
TTM_SCR_ALL	81100
TTM_SCR_S	78600
TTM_SCR_SS	81000
TTM_RAT_ACV	10012

