VERSION	0.00.00	1.03.00
FES_MODE	0
BPM_DEF	125.000	125.000	125.000	125.000
MET_DEF	4	4
RESOLUTION	384
CLK_DEF	384
COMPATIBLE_CODE	MA2

BPM	0	0	125.000
MET	0	0	4	4

TAP	1	0	7
TAP	1	80	7
TAP	1	192	6
TAP	1	272	6
TAP	2	0	5
TAP	2	80	5
TAP	2	192	4
TAP	2	272	4
TAP	3	0	3
TAP	3	80	3
TAP	3	96	2
TAP	3	192	2
TAP	3	272	2
TAP	3	288	1
TAP	4	0	1
TAP	4	80	1
TAP	4	96	0
TAP	4	192	0
TAP	4	272	0
TAP	4	288	7
TAP	4	336	7
TAP	5	0	7
TAP	5	80	7
TAP	5	96	6
TAP	5	192	6
TAP	5	272	6
TAP	5	288	5
TAP	6	0	5
TAP	6	80	5
TAP	6	96	4
TAP	6	192	4
TAP	6	272	4
TAP	6	288	3
TAP	6	336	3
TAP	7	0	3
TAP	7	80	3
TAP	7	96	2
TAP	7	192	2
TAP	7	272	2
TAP	7	288	1
TAP	8	0	1
TAP	8	80	1
TAP	8	96	0
TAP	8	192	0
TAP	8	272	0
TAP	8	288	7
TAP	8	336	7
HLD	9	0	7	80
TAP	9	80	6
TAP	9	96	7
HLD	9	192	5	80
TAP	9	272	4
TAP	9	288	5
HLD	10	0	3	80
TAP	10	80	2
TAP	10	96	3
HLD	10	192	1	80
TAP	10	272	0
TAP	10	288	1
TAP	10	336	1
HLD	11	0	0	80
TAP	11	80	1
TAP	11	96	0
HLD	11	192	2	80
TAP	11	272	3
TAP	11	288	2
HLD	12	0	4	80
TAP	12	80	5
TAP	12	96	4
HLD	12	192	6	80
TAP	12	272	7
TAP	12	288	6
TAP	12	336	6
HLD	13	0	7	80
TAP	13	80	0
TAP	13	96	1
HLD	13	192	0	80
TAP	13	272	7
TAP	13	288	6
TAP	14	0	3
TAP	14	80	3
TAP	14	192	7
TAP	14	272	7
HLD	15	0	0	96
STR	15	0	7
SI_	15	0	7	96	312	4
HLD	15	144	1	240
TAP	16	192	1
TAP	16	288	0
STR	17	0	0
SI_	17	0	0	96	288	3
HLD	17	0	7	96
HLD	17	144	6	240
HLD	19	0	0	96
STR	19	0	5
SI_	19	0	5	96	288	2
HLD	19	144	1	240
TAP	20	192	5
TAP	20	288	6
HLD	21	0	7	288
HLD	22	0	0	144
HLD	22	144	1	144
TAP	22	288	2
TAP	23	0	2
TAP	23	48	2
TAP	23	80	3
TAP	23	96	2
TAP	23	144	2
TAP	23	192	2
TAP	23	240	2
TAP	23	288	2
TAP	23	336	2
TAP	23	336	3
TAP	24	0	5
TAP	24	48	5
TAP	24	80	4
TAP	24	96	5
TAP	24	144	5
TAP	24	192	5
TAP	24	240	5
TAP	24	288	5
TAP	24	336	4
TAP	24	336	5
TAP	25	0	7
TAP	25	48	7
TAP	25	80	6
TAP	25	96	7
TAP	25	144	7
TAP	25	192	7
TAP	25	240	7
TAP	25	288	7
TAP	25	336	6
TAP	25	336	7
TAP	26	0	0
TAP	26	48	0
TAP	26	80	1
TAP	26	96	0
TAP	26	144	0
TAP	26	192	0
TAP	26	240	0
TAP	26	288	0
TAP	26	336	0
TAP	26	336	1
TAP	27	0	7
TAP	27	48	7
TAP	27	80	3
TAP	27	96	7
TAP	27	144	7
TAP	27	192	7
TAP	27	240	7
TAP	27	288	7
TAP	27	336	3
TAP	27	336	7
TAP	28	0	1
TAP	28	48	1
TAP	28	80	5
TAP	28	96	1
TAP	28	144	1
TAP	28	192	1
TAP	28	240	1
TAP	28	288	1
TAP	28	336	1
TAP	28	336	5
TAP	29	0	0
TAP	29	32	7
TAP	29	48	0
TAP	29	80	7
TAP	29	96	0
TAP	29	128	7
TAP	29	144	0
TAP	29	176	7
TAP	29	192	0
TAP	29	224	7
TAP	29	240	0
TAP	29	272	7
TAP	29	288	0
TAP	29	320	7
TAP	29	336	0
TAP	29	368	7
BRK	30	0	0
BRK	30	0	7
BRK	30	80	0
BRK	30	80	7
BRK	30	192	1
BRK	30	192	6
BRK	30	272	1
BRK	30	272	6
TAP	31	0	0
STR	31	0	7
SCL	31	0	7	96	288	4
TAP	31	80	1
TAP	31	192	2
TAP	31	272	3
TAP	32	0	3
TAP	32	80	2
TAP	32	192	1
TAP	32	192	5
TAP	32	272	0
TAP	32	288	6
STR	33	0	0
SCR	33	0	0	96	288	3
TAP	33	0	7
TAP	33	80	6
TAP	33	192	5
TAP	33	272	4
TAP	34	0	4
TAP	34	80	5
TAP	34	192	6
TAP	34	272	7
TAP	35	0	0
STR	35	0	7
SCL	35	0	7	96	288	4
TAP	35	80	0
TAP	35	192	2
TAP	35	272	2
TAP	36	0	7
TAP	36	80	7
TAP	36	192	5
TAP	36	288	4
HLD	37	0	3	288
HLD	38	0	2	144
HLD	38	144	1	144
HLD	38	288	2	96
TAP	39	0	7
TAP	39	48	7
TAP	39	80	0
TAP	39	96	7
TAP	39	144	7
TAP	39	192	7
TAP	39	240	7
TAP	39	272	0
TAP	39	288	7
TAP	39	336	0
TAP	39	336	7
TAP	40	0	3
TAP	40	48	3
TAP	40	80	4
TAP	40	96	3
TAP	40	144	3
TAP	40	192	3
TAP	40	240	3
TAP	40	272	4
TAP	40	288	3
TAP	40	336	3
TAP	40	336	4
TAP	41	0	5
TAP	41	48	5
TAP	41	80	6
TAP	41	96	5
TAP	41	144	5
TAP	41	192	5
TAP	41	240	5
TAP	41	272	6
TAP	41	288	5
TAP	41	336	5
TAP	41	336	6
TAP	42	0	2
TAP	42	48	2
TAP	42	80	1
TAP	42	96	2
TAP	42	144	2
TAP	42	192	2
TAP	42	240	2
TAP	42	272	1
TAP	42	288	2
TAP	42	336	1
TAP	42	336	2
TAP	43	0	6
TAP	43	32	7
TAP	43	48	6
TAP	43	80	7
TAP	43	96	6
TAP	43	144	6
TAP	43	192	6
TAP	43	224	7
TAP	43	240	6
TAP	43	272	7
TAP	43	288	6
TAP	43	336	6
TAP	43	336	7
TAP	44	0	1
TAP	44	32	0
TAP	44	48	1
TAP	44	80	0
TAP	44	96	1
TAP	44	144	1
TAP	44	192	1
TAP	44	224	0
TAP	44	240	1
TAP	44	272	0
TAP	44	288	1
TAP	44	336	0
TAP	44	336	1
TAP	45	0	3
TAP	45	32	4
TAP	45	48	3
TAP	45	80	4
TAP	45	96	3
TAP	45	128	4
TAP	45	144	3
TAP	45	176	4
TAP	45	192	2
TAP	45	224	5
TAP	45	240	2
TAP	45	272	5
TAP	45	288	2
TAP	45	320	5
TAP	45	336	2
TAP	45	368	5
TAP	46	0	1
TAP	46	32	6
TAP	46	48	1
TAP	46	80	6
TAP	46	96	1
TAP	46	128	6
TAP	46	144	1
TAP	46	176	6
TAP	46	192	0
TAP	46	224	7
TAP	46	240	0
TAP	46	272	7
TAP	46	288	0
TAP	46	320	7
TAP	46	336	0
TAP	46	368	7
BRK	47	0	0
BRK	48	96	6
BRK	48	192	4
BRK	48	288	2
TAP	49	0	0
TAP	49	32	1
TAP	49	48	0
TAP	49	80	1
TAP	49	96	0
TAP	49	128	1
TAP	49	144	0
TAP	49	144	1
TAP	49	192	2
TAP	49	224	3
TAP	49	240	2
TAP	49	272	3
TAP	49	288	2
TAP	49	320	3
TAP	49	336	2
TAP	49	336	3
TAP	50	0	5
TAP	50	32	4
TAP	50	48	5
TAP	50	80	4
TAP	50	96	5
TAP	50	128	4
TAP	50	144	4
TAP	50	144	5
TAP	50	192	7
TAP	50	224	6
TAP	50	240	7
TAP	50	272	6
TAP	50	288	7
TAP	50	320	6
TAP	50	336	6
TAP	50	336	7
TAP	51	0	3
TAP	51	32	4
TAP	51	48	3
TAP	51	80	4
TAP	51	96	3
TAP	51	128	4
TAP	51	144	3
TAP	51	144	4
TAP	51	192	0
TAP	51	224	7
TAP	51	240	0
TAP	51	272	7
TAP	51	288	0
TAP	51	320	7
TAP	51	336	0
TAP	51	336	7
TAP	52	0	5
TAP	52	32	6
TAP	52	48	5
TAP	52	80	6
TAP	52	96	5
TAP	52	128	6
TAP	52	144	5
TAP	52	144	6
TAP	52	192	2
TAP	52	224	1
TAP	52	240	2
TAP	52	272	1
TAP	52	288	2
TAP	52	320	1
TAP	52	336	1
TAP	52	336	2
TAP	53	0	0
TAP	53	32	0
TAP	53	48	1
TAP	53	80	1
TAP	53	96	2
TAP	53	128	2
TAP	53	144	3
TAP	53	176	3
TAP	53	192	4
TAP	53	224	4
TAP	53	240	5
TAP	53	272	5
TAP	53	288	6
TAP	53	320	6
TAP	53	336	7
TAP	53	368	7
TAP	54	0	0
TAP	54	32	7
TAP	54	48	1
TAP	54	80	6
TAP	54	96	2
TAP	54	128	5
TAP	54	144	3
TAP	54	176	4
TAP	54	192	3
TAP	54	208	4
TAP	54	224	3
TAP	54	240	5
TAP	54	256	2
TAP	54	272	5
TAP	54	288	1
TAP	54	304	6
TAP	54	320	1
TAP	54	336	7
TAP	54	352	0
TAP	54	368	7
TAP	55	0	0
TAP	55	0	7
TAP	55	80	7
TAP	55	192	6
TAP	55	272	6
TAP	56	0	5
TAP	56	80	5
TAP	56	192	4
TAP	56	272	4
TAP	57	0	2
TAP	57	48	2
TAP	57	80	1
TAP	57	96	2
TAP	57	144	2
TAP	57	192	2
TAP	57	240	2
TAP	57	272	1
TAP	57	288	2
TAP	57	320	1
TAP	57	336	1
TAP	57	336	2
TAP	58	0	5
TAP	58	48	5
TAP	58	80	6
TAP	58	96	5
TAP	58	144	5
TAP	58	192	5
TAP	58	240	5
TAP	58	272	6
TAP	58	288	5
TAP	58	320	6
TAP	58	336	5
TAP	58	336	6
BRK	59	0	6
BRK	59	80	6

T_REC_TAP	415
T_REC_BRK	14
T_REC_XTP	0
T_REC_HLD	23
T_REC_XHO	0
T_REC_STR	6
T_REC_BST	0
T_REC_XST	0
T_REC_TTP	0
T_REC_THO	0
T_REC_SLD	6
T_REC_ALL	464
T_NUM_TAP	421
T_NUM_BRK	14
T_NUM_HLD	23
T_NUM_SLD	6
T_NUM_ALL	464
T_JUDGE_TAP	435
T_JUDGE_HLD	67
T_JUDGE_SLD	6
T_JUDGE_ALL	508
TTM_EACHPAIRS	34
TTM_SCR_TAP	210500
TTM_SCR_BRK	36400
TTM_SCR_HLD	23000
TTM_SCR_SLD	9000
TTM_SCR_ALL	278900
TTM_SCR_S	269200
TTM_SCR_SS	277500
TTM_RAT_ACV	10050

