VERSION	0.00.00	1.03.00
FES_MODE	0
BPM_DEF	125.000	125.000	125.000	125.000
MET_DEF	4	4
RESOLUTION	384
CLK_DEF	384
COMPATIBLE_CODE	MA2

BPM	0	0	125.000
MET	0	0	4	4

TAP	3	0	2
TAP	3	80	2
TAP	3	192	2
TAP	3	272	2
TAP	4	0	5
TAP	4	80	5
TAP	4	192	5
TAP	4	272	5
HLD	5	0	2	80
HLD	5	192	2	80
HLD	6	0	5	80
HLD	6	192	5	80
HLD	7	0	2	80
TAP	7	80	6
TAP	7	144	6
HLD	7	192	2	80
TAP	7	272	6
TAP	7	336	6
HLD	8	0	5	80
TAP	8	80	1
TAP	8	144	1
HLD	8	192	5	80
TAP	8	272	1
TAP	8	336	1
HLD	9	0	2	80
HLD	9	80	6	64
HLD	9	192	2	80
HLD	9	272	6	64
HLD	10	0	5	80
HLD	10	80	1	64
HLD	10	192	5	80
HLD	10	272	1	64
HLD	11	0	2	80
HLD	11	80	6	64
TAP	11	144	4
HLD	11	192	5	80
HLD	11	272	1	64
TAP	11	336	3
HLD	12	0	2	80
HLD	12	80	6	64
TAP	12	144	4
HLD	12	192	5	80
HLD	12	272	1	64
TAP	12	336	3
HLD	13	0	2	80
HLD	13	80	6	64
HLD	13	144	4	48
HLD	13	192	5	80
HLD	13	272	1	64
HLD	13	336	3	48
HLD	14	0	0	80
HLD	14	80	4	64
HLD	14	144	2	48
HLD	14	192	7	80
HLD	14	272	3	64
HLD	14	336	5	48
HLD	15	0	0	576
STR	15	144	1
SI_	15	144	1	96	144	5
HLD	16	192	5	96
HLD	16	288	6	96
HLD	17	0	7	768
STR	17	144	6
SI_	17	144	6	96	144	2
HLD	19	0	1	576
STR	19	144	0
SCL	19	144	0	96	144	5
HLD	20	192	4	96
HLD	20	288	5	96
HLD	21	0	6	768
STR	22	0	0
SI_	22	0	0	96	192	3
HLD	23	0	1	80
HLD	23	80	2	112
HLD	23	192	1	80
HLD	23	272	2	112
HLD	24	0	1	80
HLD	24	80	2	112
HLD	24	192	1	80
HLD	24	272	2	64
HLD	24	336	3	48
HLD	25	0	6	80
HLD	25	80	5	112
HLD	25	192	6	80
HLD	25	272	5	112
HLD	26	0	6	80
HLD	26	80	5	112
HLD	26	192	6	80
HLD	26	272	5	64
HLD	26	336	4	48
HLD	27	0	2	80
HLD	27	80	3	112
TAP	27	144	2
HLD	27	192	2	80
HLD	27	272	3	112
TAP	27	336	2
HLD	28	0	2	80
HLD	28	80	3	112
TAP	28	144	2
HLD	28	192	2	80
HLD	28	272	3	64
HLD	28	336	4	48
HLD	29	0	5	80
HLD	29	80	4	112
TAP	29	144	5
HLD	29	192	5	80
HLD	29	272	4	112
TAP	29	336	5
HLD	30	0	6	192
TAP	30	80	3
TAP	30	144	3
HLD	30	192	1	192
TAP	30	272	4
TAP	30	336	4
HLD	31	0	7	528
HLD	31	144	6	480
HLD	32	192	4	144
HLD	32	288	3	192
HLD	33	0	1	864
HLD	33	144	0	576
HLD	35	1	0	623
HLD	35	144	1	384
HLD	36	192	5	144
HLD	36	288	6	432
HLD	37	0	7	768
BRK	38	0	6
BRK	38	48	5
BRK	38	96	4
BRK	38	144	3
BRK	38	192	2
BRK	38	240	1
BRK	38	288	0
HLD	39	0	0	96
HLD	39	96	1	96
HLD	39	192	3	96
HLD	39	288	2	96
HLD	40	0	7	96
HLD	40	96	6	96
HLD	40	192	4	96
HLD	40	288	5	96
HLD	41	0	1	96
HLD	41	96	3	96
HLD	41	192	4	96
HLD	41	288	6	96
HLD	42	0	2	96
HLD	42	96	0	96
HLD	42	192	7	96
HLD	42	288	5	96
HLD	43	0	6	96
HLD	43	96	4	96
HLD	43	192	2	96
HLD	43	288	0	96
HLD	44	0	1	96
HLD	44	96	3	96
HLD	44	192	5	96
HLD	44	288	7	96
HLD	45	0	6	96
HLD	45	96	5	96
HLD	45	192	4	96
HLD	45	288	3	96
HLD	46	0	2	96
HLD	46	96	1	96
HLD	46	192	0	96
HLD	46	288	7	288
STR	47	0	0
SI_	47	0	0	96	288	3
STR	47	288	7
SI_	47	288	7	96	288	4
HLD	48	95	3	577
HLD	49	0	4	384
HLD	50	0	3	48
HLD	50	48	2	48
HLD	50	96	1	48
HLD	50	144	0	48
HLD	50	192	7	48
HLD	50	240	6	48
HLD	50	288	5	48
HLD	50	336	4	48
HLD	51	0	3	192
TAP	51	96	5
HLD	51	192	4	192
TAP	51	288	2
HLD	52	0	3	128
TAP	52	64	5
HLD	52	128	4	128
TAP	52	192	2
HLD	52	256	3	128
TAP	52	320	5
HLD	53	0	6	192
TAP	53	96	5
HLD	53	192	1	192
TAP	53	288	2
HLD	54	0	7	144
STR	54	80	6
SI_	54	80	6	96	112	1
HLD	54	144	0	240
HLD	55	0	7	80
HLD	55	192	7	80
HLD	56	0	0	80
HLD	56	192	0	80
HLD	57	0	7	48
TAP	57	80	7
HLD	57	192	7	48
TAP	57	272	7
HLD	58	0	0	48
TAP	58	80	0
HLD	58	192	0	48
TAP	58	272	0

T_REC_TAP	40
T_REC_BRK	7
T_REC_XTP	0
T_REC_HLD	147
T_REC_XHO	0
T_REC_STR	7
T_REC_BST	0
T_REC_XST	0
T_REC_TTP	0
T_REC_THO	0
T_REC_SLD	7
T_REC_ALL	208
T_NUM_TAP	47
T_NUM_BRK	7
T_NUM_HLD	147
T_NUM_SLD	7
T_NUM_ALL	208
T_JUDGE_TAP	54
T_JUDGE_HLD	459
T_JUDGE_SLD	7
T_JUDGE_ALL	520
TTM_EACHPAIRS	0
TTM_SCR_TAP	23500
TTM_SCR_BRK	18200
TTM_SCR_HLD	147000
TTM_SCR_SLD	10500
TTM_SCR_ALL	199200
TTM_SCR_S	192550
TTM_SCR_SS	198500
TTM_RAT_ACV	10035

