VERSION	0.00.00	1.03.00
FES_MODE	0
BPM_DEF	125.000	125.000	125.000	125.000
MET_DEF	4	4
RESOLUTION	384
CLK_DEF	384
COMPATIBLE_CODE	MA2

BPM	0	0	125.000
MET	0	0	4	4

TAP	3	0	2
TAP	3	96	2
TAP	3	192	0
TAP	3	288	0
TAP	4	0	6
TAP	4	96	6
TAP	4	192	4
TAP	4	288	4
TAP	5	0	3
TAP	5	96	3
TAP	5	192	5
TAP	5	288	5
TAP	6	0	7
TAP	6	96	7
TAP	6	192	1
TAP	6	288	1
TAP	7	0	0
TAP	7	96	7
HLD	7	192	0	96
TAP	7	288	7
TAP	8	0	3
TAP	8	96	4
HLD	8	192	2	96
TAP	8	288	5
TAP	9	0	3
TAP	9	96	4
HLD	9	192	1	96
TAP	9	288	7
TAP	10	0	0
TAP	10	96	0
HLD	10	192	2	96
TAP	10	288	3
TAP	11	0	4
TAP	11	96	4
STR	11	192	6
SI_	11	192	6	96	48	1
TAP	12	0	5
TAP	12	96	5
STR	12	192	3
SI_	12	192	3	96	48	0
TAP	13	0	1
TAP	13	96	1
STR	13	192	7
SI_	13	192	7	96	48	4
TAP	14	0	1
TAP	14	96	2
TAP	14	192	3
BRK	14	288	0
HLD	15	0	5	144
HLD	15	144	7	336
TAP	16	192	2
TAP	16	288	0
HLD	17	0	1	144
HLD	17	144	2	336
STR	18	0	0
SI_	18	0	0	96	192	3
HLD	19	0	4	144
HLD	19	144	5	336
TAP	20	192	6
TAP	20	288	6
HLD	21	0	7	288
HLD	22	0	2	192
TAP	22	192	3
TAP	22	288	4
HLD	23	0	5	144
HLD	23	143	6	337
TAP	25	0	0
TAP	25	96	0
TAP	25	192	0
TAP	25	288	7
TAP	26	0	6
TAP	26	96	5
TAP	26	192	5
TAP	26	288	4
TAP	27	0	3
TAP	27	48	4
TAP	27	96	3
TAP	27	192	1
TAP	27	240	6
TAP	27	288	1
TAP	28	0	2
TAP	28	48	5
TAP	28	96	2
TAP	28	192	0
TAP	28	240	7
TAP	28	288	0
TAP	29	0	2
TAP	29	96	3
TAP	29	192	4
TAP	29	288	5
TAP	30	0	2
TAP	30	0	5
TAP	30	72	2
TAP	30	72	5
TAP	30	192	0
TAP	30	192	7
TAP	30	264	0
TAP	30	264	7
HLD	31	0	0	144
HLD	31	144	2	336
TAP	32	192	4
TAP	32	288	4
HLD	33	0	6	144
HLD	33	144	1	336
STR	34	0	7
SI_	34	0	7	96	192	4
HLD	35	0	4	144
HLD	35	144	3	336
TAP	36	192	0
TAP	36	288	7
HLD	37	0	2	288
HLD	38	0	5	192
TAP	38	192	4
TAP	38	288	3
STR	39	0	1
SI_	39	0	1	96	288	6
TAP	41	0	0
TAP	41	96	0
TAP	41	192	7
TAP	41	288	7
TAP	42	0	3
TAP	42	96	3
TAP	42	192	4
TAP	42	288	4
TAP	43	0	0
TAP	43	96	1
TAP	43	192	2
TAP	43	288	3
TAP	44	0	4
TAP	44	96	5
TAP	44	192	6
TAP	44	288	7
STR	45	0	0
SI_	45	0	0	96	48	5
STR	45	192	1
SI_	45	192	1	96	48	4
STR	46	0	6
SI_	46	0	6	96	48	3
STR	46	192	7
SI_	46	192	7	96	48	2
HLD	47	0	5	672
TAP	48	96	4
TAP	48	288	2
TAP	49	0	7
TAP	49	96	0
TAP	49	192	1
TAP	49	288	5
TAP	50	0	6
TAP	50	96	2
TAP	50	192	4
TAP	50	288	1
TAP	51	0	7
TAP	51	96	3
TAP	51	192	4
TAP	51	288	2
TAP	52	0	5
TAP	52	96	3
TAP	52	192	1
TAP	52	288	5
TAP	53	0	1
TAP	53	0	7
TAP	53	96	2
TAP	53	96	3
TAP	53	192	0
TAP	53	192	6
TAP	53	288	4
TAP	53	288	5
TAP	54	0	1
TAP	54	0	3
TAP	54	96	6
TAP	54	96	7
TAP	54	192	4
TAP	54	192	6
TAP	54	288	0
TAP	54	288	1
HLD	55	0	2	672
TAP	57	0	2
TAP	57	96	3
TAP	57	192	2
TAP	57	288	3
TAP	58	0	4
TAP	58	96	5
TAP	58	192	4
TAP	58	288	5
TAP	59	0	1
TAP	59	0	6

T_REC_TAP	141
T_REC_BRK	1
T_REC_XTP	0
T_REC_HLD	24
T_REC_XHO	0
T_REC_STR	10
T_REC_BST	0
T_REC_XST	0
T_REC_TTP	0
T_REC_THO	0
T_REC_SLD	10
T_REC_ALL	186
T_NUM_TAP	151
T_NUM_BRK	1
T_NUM_HLD	24
T_NUM_SLD	10
T_NUM_ALL	186
T_JUDGE_TAP	152
T_JUDGE_HLD	127
T_JUDGE_SLD	10
T_JUDGE_ALL	289
TTM_EACHPAIRS	13
TTM_SCR_TAP	75500
TTM_SCR_BRK	2600
TTM_SCR_HLD	24000
TTM_SCR_SLD	15000
TTM_SCR_ALL	117100
TTM_SCR_S	113500
TTM_SCR_SS	117000
TTM_RAT_ACV	10008

