VERSION	0.00.00	1.03.00
FES_MODE	0
BPM_DEF	125.000	125.000	125.000	125.000
MET_DEF	4	4
RESOLUTION	384
CLK_DEF	384
COMPATIBLE_CODE	MA2

BPM	0	0	125.000
MET	0	0	4	4

TAP	3	0	1
TAP	3	192	1
TAP	4	0	2
TAP	4	192	2
TAP	5	0	1
TAP	5	96	1
TAP	5	192	0
TAP	5	288	0
TAP	6	0	7
TAP	6	96	7
TAP	6	192	6
TAP	6	288	6
TAP	7	0	7
TAP	7	96	7
TAP	7	192	0
TAP	7	288	0
TAP	8	0	1
TAP	8	96	1
TAP	8	192	2
TAP	8	288	2
TAP	9	0	3
TAP	9	96	3
TAP	9	192	4
TAP	9	288	4
TAP	10	0	3
TAP	10	96	3
TAP	10	192	4
TAP	10	288	4
TAP	11	0	5
TAP	11	96	5
TAP	11	192	6
TAP	11	288	6
TAP	12	0	7
TAP	12	96	7
TAP	12	192	0
TAP	12	288	0
TAP	13	0	2
TAP	13	96	2
TAP	13	192	5
TAP	13	288	5
BRK	14	0	7
STR	15	0	1
SI_	15	0	1	96	192	5
TAP	16	192	5
TAP	16	288	4
STR	17	0	3
SI_	17	0	3	96	192	7
STR	19	0	0
SI_	19	0	0	96	192	4
TAP	20	192	5
TAP	20	288	4
STR	21	0	3
SI_	21	0	3	96	192	7
STR	22	0	7
SI_	22	0	7	96	192	4
TAP	23	0	0
TAP	23	96	1
TAP	23	192	2
TAP	23	288	3
TAP	24	0	4
TAP	24	96	5
TAP	24	192	6
TAP	24	288	7
TAP	25	0	7
TAP	25	96	6
TAP	25	192	5
TAP	25	288	4
TAP	26	0	3
TAP	26	96	2
TAP	26	192	1
TAP	26	288	0
TAP	27	0	0
TAP	27	96	1
TAP	27	192	0
TAP	27	288	1
TAP	28	0	2
TAP	28	96	3
TAP	28	192	2
TAP	28	288	3
TAP	29	0	4
TAP	29	96	4
TAP	29	192	5
TAP	29	288	5
TAP	30	0	6
TAP	30	96	6
TAP	30	192	7
BRK	30	288	7
STR	31	0	0
SI_	31	0	0	96	192	3
TAP	32	192	5
TAP	32	288	6
STR	33	0	7
SI_	33	0	7	96	192	4
TAP	35	0	0
TAP	35	96	0
TAP	35	192	2
TAP	35	288	2
TAP	36	0	4
TAP	36	96	4
TAP	36	192	6
TAP	36	288	6
TAP	37	0	7
TAP	37	96	7
TAP	37	192	5
TAP	37	288	5
TAP	38	0	3
TAP	38	96	3
TAP	38	192	1
BRK	38	288	1
HLD	39	0	0	288
HLD	40	0	7	288
HLD	41	0	6	288
HLD	42	0	5	288
TAP	43	0	6
TAP	43	96	6
TAP	43	192	7
TAP	43	288	7
TAP	44	0	6
TAP	44	96	6
TAP	44	192	7
TAP	44	288	7
TAP	45	0	0
TAP	45	96	0
TAP	45	192	1
TAP	45	288	1
TAP	46	0	2
TAP	46	96	2
TAP	46	192	3
TAP	46	288	3
STR	47	0	2
SI_	47	0	2	96	192	7
TAP	49	0	7
TAP	49	96	7
TAP	49	192	6
TAP	49	288	6
TAP	50	0	5
TAP	50	96	5
TAP	50	192	4
TAP	50	288	4
TAP	51	0	3
TAP	51	96	4
TAP	51	192	5
TAP	51	288	6
TAP	52	0	6
TAP	52	96	5
TAP	52	192	4
TAP	52	288	3
TAP	53	0	2
TAP	53	96	2
TAP	53	192	1
TAP	53	288	1
TAP	54	0	0
TAP	54	96	0
TAP	54	192	7
BRK	54	288	7
STR	55	0	6
SI_	55	0	6	96	192	2
TAP	57	0	3
TAP	57	96	3
TAP	57	192	4
TAP	57	288	4
TAP	58	0	5
TAP	58	96	5
TAP	58	192	6
TAP	58	288	6
BRK	59	0	7

T_REC_TAP	139
T_REC_BRK	5
T_REC_XTP	0
T_REC_HLD	4
T_REC_XHO	0
T_REC_STR	9
T_REC_BST	0
T_REC_XST	0
T_REC_TTP	0
T_REC_THO	0
T_REC_SLD	9
T_REC_ALL	166
T_NUM_TAP	148
T_NUM_BRK	5
T_NUM_HLD	4
T_NUM_SLD	9
T_NUM_ALL	166
T_JUDGE_TAP	153
T_JUDGE_HLD	24
T_JUDGE_SLD	9
T_JUDGE_ALL	186
TTM_EACHPAIRS	0
TTM_SCR_TAP	74000
TTM_SCR_BRK	13000
TTM_SCR_HLD	4000
TTM_SCR_SLD	13500
TTM_SCR_ALL	104500
TTM_SCR_S	100900
TTM_SCR_SS	104000
TTM_RAT_ACV	10048

