VERSION	0.00.00	1.05.00
FES_MODE	0
BPM_DEF	105.000	105.000	105.000	105.000
MET_DEF	4	4
RESOLUTION	384
CLK_DEF	384
COMPATIBLE_CODE	MA2

BPM	0	0	105.000
MET	0	0	4	4

NMTAP	1	0	2
NMTAP	1	32	4
NMTAP	1	48	3
NMTAP	1	96	4
NMTAP	1	96	5
NMTAP	1	144	6
NMHLD	1	176	6	112
BRTAP	1	224	7
BRTAP	1	256	7
BRTAP	1	288	7
BRTAP	1	320	7
NMTAP	2	48	5
NMTAP	2	72	5
NMSTR	2	96	5
NMSCL	2	96	5	96	24	3
NMTAP	2	128	6
NMTAP	2	144	4
NMTAP	2	176	4
NMTAP	2	320	2
NMTAP	2	336	2
NMTAP	3	0	3
NMTAP	3	0	4
NMTAP	3	32	5
NMTAP	3	48	4
NMTAP	3	128	4
NMTAP	3	144	5
NMTAP	3	176	4
NMTAP	3	272	6
NMTAP	3	288	4
NMTAP	3	320	5
NMTAP	3	336	3
NMTAP	4	0	2
NMSTR	4	0	4
NMSI_	4	0	4	96	96	7
NMHLD	4	64	0	176
NMTAP	4	240	7
BRTAP	4	336	7
BRTAP	4	368	0
BRTAP	5	32	1
NMTAP	5	320	2
NMTAP	5	352	2
NMTAP	5	368	3
NMHLD	6	32	1	256
NMTAP	6	32	4
NMTAP	6	288	3
NMHLD	6	368	2	192
BRTAP	7	0	4
NMHLD	7	176	4	192
BRTAP	7	192	3
NMHLD	7	368	1	96
BRTAP	8	0	2
NMTAP	8	80	3
BRTAP	8	96	1
NMTAP	8	144	3
NMTAP	8	156	3
NMTAP	8	168	3
NMTAP	8	180	3
NMSTR	8	192	3
NMSV_	8	192	3	96	48	0
NMSV_	8	192	3	96	48	6
NMTAP	8	228	2
NMTAP	8	228	4
BRTAP	8	288	3
BRTAP	9	0	1
BRTAP	9	0	7
NMTAP	9	32	0
NMTAP	9	48	6
NMTAP	9	80	6
NMTAP	9	96	4
NMTAP	9	128	4
NMSTR	9	144	5
NMSI_	9	144	5	96	24	1
NMTAP	9	176	5
NMSTR	9	192	1
NMSI_	9	192	1	96	24	6
BRTAP	10	0	3
BRTAP	10	0	4
NMTAP	10	32	4
NMTAP	10	48	2
NMTAP	10	80	2
NMTAP	10	96	0
NMTAP	10	128	0
NMSTR	10	144	1
NMSI_	10	144	1	96	24	5
NMTAP	10	176	1
NMSTR	10	192	5
NMSI_	10	192	5	96	24	2
BRTAP	11	0	7
NMTAP	11	48	5
NMTAP	11	80	5
NMTAP	11	96	4
NMTAP	11	128	4
NMTAP	11	144	7
NMTAP	11	176	7
NMSTR	11	192	0
NMSI_	11	192	0	96	24	3
NMTAP	11	224	1
NMSTR	11	240	3
NMSI_	11	240	3	96	24	0
NMTAP	11	288	5
BRTAP	12	0	6
NMTAP	12	32	6
NMTAP	12	48	7
NMTAP	12	80	2
NMTAP	12	96	3
NMTAP	12	128	3
NMTAP	12	144	0
NMTAP	12	176	0
NMSTR	12	192	7
NMSI_	12	192	7	96	24	4
NMTAP	12	224	6
NMSTR	12	240	4
NMSI_	12	240	4	96	24	7
NMTAP	12	288	2
BRTAP	13	0	5
NMTAP	13	48	2
NMTAP	13	80	2
NMTAP	13	96	3
NMTAP	13	128	3
NMTAP	13	144	2
NMTAP	13	176	7
NMSTR	13	192	0
NMSI_	13	192	0	96	24	4
NMTAP	13	224	2
NMTAP	13	240	3
NMTAP	13	272	6
NMTAP	13	288	0
NMTAP	13	336	5
NMTAP	13	368	5
NMTAP	14	0	4
NMTAP	14	32	2
NMTAP	14	48	3
NMTAP	14	80	5
NMTAP	14	96	1
NMTAP	14	128	3
NMTAP	14	144	2
NMTAP	14	176	7
NMSTR	14	192	1
NMSI_	14	192	1	96	24	5
NMTAP	14	224	6
NMTAP	14	240	0
NMTAP	14	272	5
NMHLD	14	312	7	0
NMTAP	15	0	0
BRTAP	15	0	4
NMTAP	15	32	2
NMTAP	15	48	3
NMTAP	15	80	3
NMTAP	15	96	2
NMTAP	15	128	5
NMTAP	15	144	4
BRTAP	15	176	3
NMTAP	15	176	6
NMTAP	15	224	2
NMTAP	15	240	3
NMTAP	15	272	3
NMTAP	15	288	1
NMTAP	15	288	4
NMTAP	15	336	1
NMTAP	15	352	0
NMTAP	15	368	7
BRTAP	16	0	2
NMTAP	16	0	6
NMTAP	16	48	6
NMTAP	16	64	7
NMTAP	16	80	0
BRTAP	16	96	1
NMTAP	16	96	5
NMTAP	16	144	3
NMTAP	16	144	7
NMTAP	16	176	1
NMTAP	16	176	5
NMSTR	16	192	1
NMSI_	16	192	1	96	24	4
NMSTR	16	192	5
NMSI_	16	192	5	96	24	0
BRTAP	16	240	0
NMTAP	16	240	4
BRTAP	17	0	1
BRTAP	17	0	7
NMTAP	17	32	0
NMTAP	17	48	6
NMTAP	17	80	6
NMTAP	17	96	4
NMTAP	17	128	4
NMSTR	17	144	5
NMSI_	17	144	5	96	24	1
NMTAP	17	176	5
NMSTR	17	192	1
NMSI_	17	192	1	96	24	6
NMTAP	17	240	7
NMHLD	17	288	7	48
BRTAP	18	0	3
BRTAP	18	0	4
NMTAP	18	32	4
NMTAP	18	48	2
NMTAP	18	80	2
NMTAP	18	96	0
NMTAP	18	128	0
NMSTR	18	144	1
NMSI_	18	144	1	96	24	5
NMTAP	18	176	1
NMSTR	18	192	5
NMSI_	18	192	5	96	24	2
NMTAP	18	240	3
NMHLD	18	288	3	96
BRTAP	19	0	7
NMTAP	19	48	7
NMTAP	19	80	5
NMTAP	19	96	4
NMTAP	19	128	4
NMTAP	19	144	7
NMTAP	19	176	7
NMSTR	19	192	0
NMSI_	19	192	0	96	24	3
NMTAP	19	224	0
NMSTR	19	240	3
NMSI_	19	240	3	96	24	0
NMHLD	19	288	1	48
BRTAP	20	0	6
NMTAP	20	32	6
NMTAP	20	48	7
NMTAP	20	80	2
NMTAP	20	96	3
NMTAP	20	128	3
NMTAP	20	144	0
NMTAP	20	176	0
NMSTR	20	192	7
NMSI_	20	192	7	96	24	4
NMTAP	20	224	7
NMSTR	20	240	4
NMSI_	20	240	4	96	24	7
NMHLD	20	288	6	48
BRTAP	21	0	5
NMTAP	21	48	2
NMTAP	21	80	2
NMTAP	21	96	3
NMTAP	21	128	3
NMTAP	21	144	2
NMTAP	21	176	7
NMSTR	21	192	0
NMSI_	21	192	0	96	24	4
NMTAP	21	224	2
NMTAP	21	240	3
NMTAP	21	272	6
NMTAP	21	288	0
NMTAP	21	336	5
NMSTR	21	368	5
NMSCR	21	368	5	96	40	0
NMTAP	22	0	4
NMTAP	22	32	2
NMTAP	22	48	3
NMTAP	22	80	5
NMTAP	22	96	1
NMTAP	22	128	3
NMTAP	22	144	2
NMTAP	22	176	7
NMSTR	22	192	1
NMSI_	22	192	1	96	24	5
NMTAP	22	224	3
NMTAP	22	240	0
NMTAP	22	272	5
NMHLD	22	312	7	0
NMTAP	23	0	0
BRTAP	23	0	4
NMTAP	23	32	2
NMTAP	23	48	3
NMTAP	23	80	3
NMTAP	23	96	2
NMTAP	23	128	5
NMTAP	23	144	4
NMTAP	23	176	6
BRTAP	23	192	3
NMTAP	23	192	6
NMTAP	23	224	2
NMTAP	23	240	3
NMTAP	23	272	3
NMTAP	23	288	1
NMTAP	23	288	4
NMTAP	23	336	1
NMTAP	23	352	0
NMTAP	23	368	7
BRTAP	24	0	2
NMTAP	24	0	6
NMTAP	24	48	6
NMTAP	24	64	7
NMTAP	24	80	0
BRTAP	24	96	1
NMTAP	24	96	5
BRTAP	24	144	0
NMTAP	24	144	7
NMTAP	24	176	1
NMTAP	24	176	5
NMSTR	24	192	1
NMSI_	24	192	1	96	24	4
NMSTR	24	192	5
NMSI_	24	192	5	96	24	0
NMTAP	24	240	3
NMTAP	24	240	7
NMTAP	24	288	1
NMTAP	24	288	5
NMSTR	25	0	2
NMSLR	25	0	2	96	96	0
NMTAP	25	0	7
NMTAP	25	32	1
NMTAP	25	48	0
NMTAP	25	80	0
NMTAP	25	96	2
NMTAP	25	128	7
NMTAP	25	176	7
NMTAP	25	192	6
NMTAP	25	224	6
NMTAP	25	240	2
NMTAP	25	272	2
NMTAP	25	288	3
NMTAP	25	320	3
NMTAP	25	336	0
NMTAP	25	368	0
NMSTR	26	0	7
NMSI_	26	0	7	96	48	3
NMTAP	26	32	7
NMSTR	26	48	3
NMSI_	26	48	3	96	48	5
NMTAP	26	80	2
NMTAP	26	96	7
NMTAP	26	128	1
NMTAP	26	144	0
NMTAP	26	176	0
NMSTR	26	192	7
NMSCR	26	192	7	96	48	2
NMTAP	26	224	7
NMTAP	26	240	6
NMTAP	26	288	4
NMTAP	26	336	4
NMTAP	27	0	0
NMSTR	27	0	5
NMSLL	27	0	5	96	96	7
NMTAP	27	32	6
NMTAP	27	48	7
NMTAP	27	80	7
NMTAP	27	96	5
NMTAP	27	128	0
NMTAP	27	176	0
NMTAP	27	192	1
NMTAP	27	224	1
NMTAP	27	240	5
NMTAP	27	272	5
NMTAP	27	288	4
NMTAP	27	320	4
NMTAP	27	336	7
NMTAP	27	368	7
NMSTR	28	0	0
NMSI_	28	0	0	96	48	4
NMTAP	28	32	0
NMSTR	28	48	4
NMSI_	28	48	4	96	48	2
NMTAP	28	80	5
NMTAP	28	96	0
NMTAP	28	128	6
NMTAP	28	144	7
NMTAP	28	176	7
NMSTR	28	192	0
NMSCL	28	192	0	96	48	5
NMTAP	28	224	0
NMTAP	28	240	1
NMTAP	28	288	3
NMTAP	28	336	3
NMHLD	29	0	2	80
NMTAP	29	0	4
NMTAP	29	32	4
NMTAP	29	80	3
NMHLD	29	96	3	32
NMTAP	29	128	4
NMHLD	29	144	4	32
NMTAP	29	176	5
NMTAP	29	192	5
NMTAP	29	224	4
NMHLD	29	224	6	48
NMTAP	29	272	5
NMHLD	29	288	5	32
NMTAP	29	320	4
NMTAP	29	336	4
NMTAP	29	368	3
NMTAP	29	368	5
NMTAP	30	0	3
NMTAP	30	0	5
NMSTR	30	32	6
NMSI_	30	32	6	96	16	2
NMSTR	30	48	2
NMSI_	30	48	2	96	24	6
NMTAP	30	80	5
NMTAP	30	96	3
NMTAP	30	192	0
NMSTR	30	224	1
NMSI_	30	224	1	96	16	5
NMSTR	30	240	5
NMSI_	30	240	5	96	24	1
NMTAP	30	272	2
NMTAP	30	288	4
NMTAP	31	0	6
NMTAP	31	32	0
NMHLD	31	32	6	48
NMTAP	31	80	7
NMHLD	31	96	7	32
NMTAP	31	128	0
NMHLD	31	144	0	32
NMTAP	31	176	1
NMTAP	31	192	1
NMHLD	31	224	1	48
NMTAP	31	224	7
NMTAP	31	272	0
NMHLD	31	288	0	32
NMTAP	31	320	7
NMTAP	31	336	7
NMTAP	31	368	0
NMTAP	31	368	6
NMTAP	32	0	0
NMTAP	32	0	6
NMTAP	32	48	3
NMTAP	32	48	5
NMTAP	32	96	2
NMTAP	32	96	3
NMTAP	32	128	3
NMHLD	32	128	4	48
NMTAP	32	176	3
NMTAP	32	192	5
NMTAP	32	208	4
NMTAP	32	224	5
NMTAP	32	240	2
NMTAP	32	256	3
NMTAP	32	272	2
NMTAP	32	288	6
NMTAP	32	304	3
NMTAP	32	320	4
BRTAP	32	336	0
NMHLD	33	0	4	32
NMHLD	33	0	5	32
NMTAP	33	48	5
NMTAP	33	48	6
NMTAP	33	80	7
NMHLD	33	96	7	32
NMTAP	33	128	6
NMTAP	33	144	6
NMTAP	33	176	4
NMHLD	33	192	4	32
NMTAP	33	224	5
NMHLD	33	240	5	32
NMTAP	33	272	6
NMHLD	33	288	6	32
NMTAP	33	320	5
NMTAP	33	336	5
NMHLD	34	0	4	32
NMHLD	34	0	6	32
NMTAP	34	48	5
NMTAP	34	48	7
NMTAP	34	80	4
NMTAP	34	80	6
NMHLD	34	96	4	32
NMHLD	34	96	6	32
NMTAP	34	144	5
NMTAP	34	144	7
NMTAP	34	176	6
NMHLD	34	192	6	32
NMTAP	34	224	5
NMHLD	34	240	5	32
NMTAP	34	272	4
NMTAP	34	288	4
NMTAP	34	336	0
NMTAP	34	336	7
NMTAP	34	368	1
NMHLD	35	0	1	32
NMTAP	35	32	0
NMTAP	35	48	0
NMHLD	35	96	1	32
NMHLD	35	96	2	32
NMTAP	35	144	2
NMTAP	35	144	3
NMTAP	35	176	1
NMHLD	35	192	1	32
NMTAP	35	224	0
NMHLD	35	240	0	32
NMTAP	35	272	3
NMHLD	35	288	3	32
NMTAP	35	320	1
NMTAP	35	336	1
NMTAP	36	0	1
NMTAP	36	0	2
NMTAP	36	32	3
NMHLD	36	48	3	32
NMTAP	36	80	1
NMTAP	36	96	1
NMHLD	36	128	0	48
NMTAP	36	128	2
NMTAP	36	176	1
NMHLD	36	192	1	32
NMTAP	36	224	3
NMHLD	36	240	3	32
NMTAP	36	272	0
NMTAP	36	288	0
NMTAP	36	320	1
NMHLD	36	320	2	48
NMTAP	36	368	1
NMTAP	37	0	1
NMTAP	37	48	1
NMTAP	37	48	3
NMTAP	37	80	2
NMTAP	37	96	3
NMTAP	37	128	3
NMTAP	37	144	2
NMTAP	37	176	5
BRTAP	37	192	4
BRTAP	37	216	4
BRTAP	37	240	4
NMTAP	37	272	3
NMTAP	37	272	5
NMTAP	37	288	3
NMTAP	37	288	5
NMTAP	37	320	2
NMTAP	37	320	4
NMTAP	37	368	1
NMTAP	38	0	2
NMTAP	38	16	3
NMTAP	38	32	4
NMTAP	38	48	3
NMTAP	38	64	4
NMTAP	38	80	5
NMTAP	38	96	6
NMTAP	38	112	7
NMTAP	38	128	0
NMTAP	38	144	1
NMTAP	38	160	2
NMTAP	38	176	6
NMTAP	38	192	5
NMTAP	38	208	4
NMTAP	38	224	3
NMTAP	38	240	4
NMTAP	38	256	3
NMTAP	38	272	2
NMTAP	38	288	1
NMTAP	38	304	0
NMTAP	38	320	1
NMHLD	38	320	3	48
NMTAP	38	368	2
NMTAP	39	0	3
NMTAP	39	0	4
NMTAP	39	48	4
NMTAP	39	48	6
NMTAP	39	80	7
NMTAP	39	96	5
NMTAP	39	128	5
NMTAP	39	144	3
NMTAP	39	176	3
NMTAP	39	192	1
NMTAP	39	224	1
NMTAP	39	240	7
NMTAP	39	272	7
NMTAP	39	288	5
NMTAP	39	320	0
NMTAP	39	320	6
NMSTR	39	336	0
NMSI_	39	336	0	96	24	4
NMTAP	39	336	6
NMTAP	39	368	2
NMTAP	39	376	3
NMTAP	40	0	2
BRTAP	40	48	0
BRTAP	40	48	4
NMHLD	40	120	5	56
NMTAP	40	176	1
NMTAP	40	192	2
NMTAP	40	208	3
NMTAP	40	224	4
NMTAP	40	240	2
NMTAP	40	240	5
NMTAP	40	256	3
NMTAP	40	272	4
NMTAP	40	288	2
NMTAP	40	288	5
NMTAP	40	304	3
NMTAP	40	320	4
NMTAP	40	336	2
NMTAP	40	336	5
NMTAP	40	352	3
NMTAP	40	368	4
NMSTR	41	0	2
NMSI_	41	0	2	96	48	5
NMTAP	41	0	5
NMTAP	41	32	1
NMTAP	41	32	6
NMTAP	41	80	6
NMTAP	41	96	7
NMTAP	41	128	7
NMTAP	41	144	6
NMTAP	41	176	6
NMSTR	41	192	4
NMSI_	41	192	4	96	48	7
NMTAP	41	224	2
NMTAP	41	224	3
NMTAP	41	272	1
NMTAP	41	288	0
NMTAP	41	320	0
NMSTR	41	336	1
NMSI_	41	336	1	96	48	5
NMTAP	41	368	2
NMTAP	42	0	0
NMTAP	42	48	1
NMTAP	42	48	7
NMTAP	42	128	7
NMTAP	42	176	5
NMTAP	42	192	4
NMTAP	42	208	2
NMTAP	42	224	3
NMTAP	42	240	5
NMTAP	42	256	3
NMTAP	42	272	2
NMTAP	42	288	1
NMSTR	42	288	7
NMSI_	42	288	7	96	32	3
NMTAP	43	0	0
NMTAP	43	0	7
NMSTR	43	32	1
NMSI_	43	32	1	96	40	5
NMTAP	43	48	2
NMTAP	43	80	6
NMTAP	43	96	4
NMTAP	43	128	1
NMSTR	43	144	5
NMSCR	43	144	5	96	48	0
NMTAP	43	176	4
NMTAP	43	192	3
NMTAP	43	224	3
NMTAP	43	240	4
NMTAP	43	272	4
NMTAP	43	288	5
NMTAP	43	336	1
NMTAP	43	336	7
NMTAP	43	368	6
NMSTR	44	0	6
NMSI_	44	0	6	96	24	3
NMTAP	44	32	3
NMSTR	44	48	3
NMSI_	44	48	3	96	24	0
NMTAP	44	80	0
NMSTR	44	96	0
NMSI_	44	96	0	96	24	5
NMTAP	44	128	5
NMSTR	44	144	5
NMSI_	44	144	5	96	24	2
NMTAP	44	176	2
NMSTR	44	192	2
NMSI_	44	192	2	96	24	7
NMTAP	44	224	1
NMTAP	44	240	1
NMTAP	44	272	6
NMSTR	44	288	6
NMSSL	44	288	6	96	576	2
BRTAP	45	0	6
BRTAP	45	40	7
BRTAP	45	80	7
BRTAP	45	120	7
BRTAP	45	160	7
BRTAP	45	200	7
BRTAP	45	240	7
BRTAP	45	288	7
BRTAP	45	336	7
BRTAP	46	0	7

T_REC_TAP	459
T_REC_BRK	52
T_REC_XTP	0
T_REC_BXX	0
T_REC_HLD	48
T_REC_XHO	0
T_REC_BHO	0
T_REC_BXH	0
T_REC_STR	53
T_REC_BST	0
T_REC_XST	0
T_REC_XBS	0
T_REC_TTP	0
T_REC_THO	0
T_REC_SLD	54
T_REC_BSL	0
T_REC_ALL	666
T_NUM_TAP	512
T_NUM_BRK	52
T_NUM_HLD	48
T_NUM_SLD	54
T_NUM_ALL	666
T_JUDGE_TAP	564
T_JUDGE_HLD	131
T_JUDGE_SLD	54
T_JUDGE_ALL	749
TTM_EACHPAIRS	74
TTM_SCR_TAP	256000
TTM_SCR_BRK	135200
TTM_SCR_HLD	48000
TTM_SCR_SLD	81000
TTM_SCR_ALL	520200
TTM_SCR_S	499550
TTM_SCR_SS	515000
TTM_RAT_ACV	10100

