VERSION	0.00.00	1.03.00
FES_MODE	0
BPM_DEF	105.000	105.000	105.000	105.000
MET_DEF	4	4
RESOLUTION	384
CLK_DEF	384
COMPATIBLE_CODE	MA2

BPM	0	0	105.000
MET	0	0	4	4

TAP	1	0	2
TAP	1	0	5
TAP	1	96	3
TAP	1	192	2
TAP	1	192	5
TAP	1	288	3
TAP	2	0	2
TAP	2	0	5
TAP	2	96	4
TAP	2	192	2
TAP	2	192	5
TAP	2	288	4
TAP	3	0	1
TAP	3	32	4
TAP	3	48	1
TAP	3	128	1
TAP	3	144	4
TAP	3	176	1
TAP	3	272	4
TAP	3	288	1
TAP	3	320	4
TAP	3	336	1
TAP	4	0	0
TAP	4	96	7
TAP	4	192	6
TAP	4	240	6
TAP	4	288	5
TAP	4	336	5
TAP	5	0	6
TAP	5	32	3
TAP	5	48	6
TAP	5	128	6
TAP	5	144	3
TAP	5	176	6
TAP	5	272	3
TAP	5	288	6
TAP	5	320	3
TAP	5	336	6
TAP	6	0	1
TAP	6	48	2
TAP	6	96	6
TAP	6	144	5
TAP	6	192	0
TAP	6	240	1
TAP	6	288	7
TAP	6	336	6
TAP	6	368	0
BRK	7	0	7
TAP	7	176	0
BRK	7	192	7
TAP	7	368	0
BRK	8	0	7
TAP	8	80	0
BRK	8	96	7
TAP	8	240	0
TAP	8	240	7
TAP	8	288	3
TAP	8	288	4
TAP	9	0	1
TAP	9	24	4
TAP	9	48	3
TAP	9	72	4
TAP	9	96	3
TAP	9	120	3
TAP	9	144	4
TAP	9	168	2
TAP	9	216	5
TAP	9	240	4
TAP	9	264	5
TAP	9	288	1
TAP	9	312	2
TAP	9	336	1
TAP	10	0	0
TAP	10	48	6
TAP	10	72	5
TAP	10	96	6
TAP	10	120	3
TAP	10	144	2
TAP	10	168	3
TAP	10	216	2
TAP	10	240	3
TAP	10	264	5
STR	10	288	4
SI_	10	288	4	96	48	1
TAP	11	0	7
TAP	11	48	7
TAP	11	96	6
TAP	11	120	0
TAP	11	144	1
TAP	11	168	0
TAP	11	216	6
TAP	11	240	7
TAP	11	264	6
TAP	11	288	0
TAP	11	312	0
TAP	11	336	7
TAP	11	360	1
TAP	12	0	6
TAP	12	48	4
TAP	12	48	7
TAP	12	96	3
TAP	12	120	4
TAP	12	144	3
TAP	12	168	4
TAP	12	192	3
TAP	12	216	4
TAP	12	240	7
TAP	12	288	4
TAP	12	336	1
TAP	13	0	5
TAP	13	48	5
TAP	13	48	7
TAP	13	96	6
TAP	13	120	6
TAP	13	144	6
TAP	13	168	0
TAP	13	216	4
TAP	13	240	2
TAP	13	264	4
TAP	13	288	3
TAP	13	312	5
TAP	13	336	3
TAP	13	360	4
TAP	14	0	2
TAP	14	24	3
TAP	14	48	2
TAP	14	72	3
TAP	14	96	5
TAP	14	120	4
TAP	14	144	5
TAP	14	168	4
TAP	14	192	2
TAP	14	216	3
TAP	14	240	4
TAP	14	264	5
TAP	14	288	6
TAP	15	0	4
TAP	15	48	6
TAP	15	72	5
TAP	15	96	4
TAP	15	144	2
TAP	15	168	3
TAP	15	216	5
TAP	15	240	4
TAP	15	264	5
TAP	15	288	0
TAP	15	336	3
TAP	16	0	2
TAP	16	48	2
TAP	16	72	2
TAP	16	96	1
TAP	16	144	1
TAP	16	168	1
TAP	16	240	0
TAP	16	240	7
TAP	16	288	3
TAP	16	288	4
BRK	17	0	1
TAP	17	24	4
TAP	17	48	3
TAP	17	72	4
TAP	17	96	3
TAP	17	120	3
TAP	17	144	4
TAP	17	168	2
TAP	17	216	5
TAP	17	240	4
TAP	17	264	5
TAP	17	288	1
TAP	17	312	2
TAP	17	336	1
BRK	18	0	0
TAP	18	48	6
TAP	18	72	5
TAP	18	96	6
TAP	18	120	3
TAP	18	144	2
TAP	18	168	3
TAP	18	216	2
TAP	18	240	3
TAP	18	264	5
STR	18	288	4
SI_	18	288	4	96	48	1
BRK	19	0	7
TAP	19	48	7
TAP	19	96	6
TAP	19	120	0
TAP	19	144	1
TAP	19	168	0
TAP	19	216	6
TAP	19	240	7
TAP	19	264	6
TAP	19	288	0
TAP	19	312	0
TAP	19	336	7
TAP	19	360	1
BRK	20	0	6
TAP	20	48	4
TAP	20	48	7
TAP	20	96	3
TAP	20	120	4
TAP	20	144	3
TAP	20	168	4
TAP	20	192	3
TAP	20	216	4
TAP	20	240	7
TAP	20	288	4
TAP	20	336	1
BRK	21	0	5
TAP	21	48	5
TAP	21	48	7
TAP	21	96	6
TAP	21	120	6
TAP	21	144	6
TAP	21	168	0
TAP	21	216	4
TAP	21	240	2
TAP	21	264	4
TAP	21	288	3
TAP	21	312	5
TAP	21	336	3
TAP	21	360	4
TAP	22	0	2
TAP	22	24	3
TAP	22	48	2
TAP	22	72	3
TAP	22	96	5
TAP	22	120	4
TAP	22	144	5
TAP	22	168	4
TAP	22	192	2
TAP	22	216	3
TAP	22	240	4
TAP	22	264	5
TAP	22	288	6
BRK	23	0	4
TAP	23	48	6
TAP	23	72	5
TAP	23	96	4
TAP	23	144	2
BRK	23	168	3
TAP	23	216	5
TAP	23	240	4
TAP	23	264	5
TAP	23	288	0
TAP	23	336	3
BRK	24	0	2
TAP	24	48	2
TAP	24	72	2
BRK	24	96	1
TAP	24	144	1
TAP	24	168	1
BRK	24	240	0
TAP	24	240	7
TAP	24	288	3
TAP	24	288	4
TAP	25	0	6
TAP	25	48	5
TAP	25	96	7
TAP	25	120	5
TAP	25	144	6
TAP	25	168	7
TAP	25	192	4
TAP	25	216	6
TAP	25	240	5
TAP	25	264	7
TAP	25	288	6
TAP	25	312	4
TAP	25	336	7
TAP	25	360	6
TAP	26	0	0
TAP	26	24	5
TAP	26	48	7
TAP	26	72	7
TAP	26	96	6
TAP	26	120	4
TAP	26	144	7
TAP	26	168	0
TAP	26	192	5
TAP	26	240	7
TAP	26	288	6
TAP	27	0	1
TAP	27	48	2
TAP	27	96	1
TAP	27	120	3
TAP	27	144	2
TAP	27	168	0
TAP	27	192	1
TAP	27	216	3
TAP	27	240	0
TAP	27	264	2
TAP	27	288	4
TAP	27	312	1
TAP	27	336	3
TAP	27	360	2
TAP	28	0	7
TAP	28	24	1
TAP	28	48	3
TAP	28	72	0
TAP	28	96	4
TAP	28	120	2
TAP	28	144	7
TAP	28	168	1
TAP	28	192	3
TAP	28	240	1
TAP	28	288	2
TAP	29	0	0
TAP	29	24	0
TAP	29	48	7
TAP	29	72	0
TAP	29	96	7
TAP	29	120	0
TAP	29	144	7
TAP	29	168	7
TAP	29	192	0
TAP	29	216	7
TAP	29	240	0
TAP	29	264	0
TAP	29	288	7
TAP	29	312	7
TAP	29	336	0
TAP	29	360	7
TAP	30	0	2
TAP	30	48	5
TAP	30	96	3
TAP	30	120	5
TAP	30	144	2
TAP	30	168	4
TAP	30	192	3
TAP	30	216	5
TAP	30	240	4
TAP	30	264	2
TAP	30	288	5
TAP	30	312	3
TAP	30	336	2
TAP	31	0	7
TAP	31	24	7
TAP	31	48	0
TAP	31	72	7
TAP	31	96	0
TAP	31	120	0
TAP	31	144	7
TAP	31	168	7
TAP	31	192	7
TAP	31	216	0
TAP	31	240	0
TAP	31	264	0
TAP	31	288	7
TAP	31	312	0
TAP	31	336	7
TAP	31	360	7
TAP	32	0	3
TAP	32	48	4
TAP	32	96	2
TAP	32	120	3
TAP	32	144	5
TAP	32	168	5
TAP	32	192	2
TAP	32	216	2
TAP	32	240	4
TAP	32	264	2
TAP	32	288	3
TAP	32	312	5
TAP	32	336	4
HLD	33	0	6	72
HLD	33	48	5	72
HLD	33	96	7	72
HLD	33	144	6	72
HLD	33	192	4	72
HLD	33	240	5	72
HLD	33	288	6	72
HLD	33	336	5	72
HLD	34	0	2	72
HLD	34	48	0	72
HLD	34	96	1	72
HLD	34	144	3	72
HLD	34	192	2	72
HLD	34	240	1	72
HLD	34	288	0	72
HLD	34	336	2	48
TAP	35	0	3
TAP	35	48	4
TAP	35	72	5
TAP	35	96	4
TAP	35	120	3
TAP	35	144	2
TAP	35	168	3
TAP	35	192	4
TAP	35	216	3
TAP	35	240	4
TAP	35	264	5
TAP	35	288	4
TAP	35	312	3
TAP	35	336	4
TAP	36	0	0
TAP	36	48	1
TAP	36	72	0
TAP	36	96	7
TAP	36	120	6
TAP	36	144	5
TAP	36	168	6
TAP	36	192	7
TAP	36	216	0
TAP	36	240	7
TAP	36	264	0
TAP	36	288	1
TAP	36	312	2
TAP	37	0	1
TAP	37	24	5
TAP	37	48	1
TAP	37	72	5
TAP	37	96	2
TAP	37	120	6
TAP	37	144	2
TAP	37	168	6
TAP	37	192	1
TAP	37	216	1
TAP	37	240	5
TAP	37	264	5
TAP	37	288	2
TAP	37	312	2
TAP	37	336	6
TAP	37	360	6
TAP	38	0	1
TAP	38	24	1
TAP	38	48	1
TAP	38	72	1
TAP	38	96	5
TAP	38	120	5
TAP	38	144	5
TAP	38	168	5
TAP	38	192	0
TAP	38	216	0
TAP	38	240	0
TAP	38	264	0
TAP	38	288	0
TAP	38	312	0
TAP	38	336	0
TAP	38	360	0
TAP	39	0	6
TAP	39	48	7
TAP	39	96	0
TAP	39	144	1
TAP	39	192	2
TAP	39	240	3
TAP	39	288	4
TAP	39	336	5
TAP	40	0	6
TAP	40	24	7
TAP	40	48	0
TAP	40	72	1
TAP	40	96	2
TAP	40	120	3
TAP	40	144	4
TAP	40	168	5
TAP	40	192	6
TAP	40	208	7
TAP	40	224	0
TAP	40	240	1
TAP	40	256	2
TAP	40	272	3
TAP	40	288	4
TAP	40	304	5
TAP	40	320	6
TAP	40	336	7
TAP	40	352	0
TAP	40	368	1
TAP	41	0	0
TAP	41	0	3
TAP	41	96	1
TAP	41	96	6
TAP	41	192	4
TAP	41	192	7
TAP	41	288	2
TAP	41	288	5
TAP	42	0	1
TAP	42	0	4
TAP	42	48	2
TAP	42	48	5
TAP	42	96	3
TAP	42	96	6
TAP	42	144	2
TAP	42	144	5
TAP	42	192	3
TAP	42	192	4
TAP	42	216	2
TAP	42	216	3
TAP	42	240	3
TAP	42	240	4
TAP	42	264	4
TAP	42	264	5
TAP	42	288	3
TAP	42	288	4
TAP	42	312	3
TAP	42	312	4
TAP	42	336	3
TAP	42	336	4
STR	43	0	2
SI_	43	0	2	96	48	5
STR	43	96	5
SI_	43	96	5	96	48	1
STR	43	192	1
SI_	43	192	1	96	48	6
STR	43	288	6
SI_	43	288	6	96	48	3
STR	44	0	3
SI_	44	0	3	96	48	0
STR	44	96	0
SI_	44	96	0	96	48	4
STR	44	192	4
SI_	44	192	4	96	48	7
STR	44	288	7
SI_	44	288	7	96	384	3

T_REC_TAP	463
T_REC_BRK	14
T_REC_XTP	0
T_REC_HLD	16
T_REC_XHO	0
T_REC_STR	10
T_REC_BST	0
T_REC_XST	0
T_REC_TTP	0
T_REC_THO	0
T_REC_SLD	10
T_REC_ALL	513
T_NUM_TAP	473
T_NUM_BRK	14
T_NUM_HLD	16
T_NUM_SLD	10
T_NUM_ALL	513
T_JUDGE_TAP	487
T_JUDGE_HLD	47
T_JUDGE_SLD	10
T_JUDGE_ALL	544
TTM_EACHPAIRS	29
TTM_SCR_TAP	236500
TTM_SCR_BRK	36400
TTM_SCR_HLD	16000
TTM_SCR_SLD	15000
TTM_SCR_ALL	303900
TTM_SCR_S	293450
TTM_SCR_SS	302500
TTM_RAT_ACV	10046

