VERSION	0.00.00	1.03.00
FES_MODE	0
BPM_DEF	105.000	105.000	105.000	105.000
MET_DEF	4	4
RESOLUTION	384
CLK_DEF	384
COMPATIBLE_CODE	MA2

BPM	0	0	105.000
MET	0	0	4	4

TAP	1	96	0
TAP	1	96	7
TAP	1	240	1
TAP	1	288	0
TAP	1	288	7
TAP	2	96	0
TAP	2	96	7
TAP	2	228	6
TAP	2	240	6
TAP	2	288	0
TAP	2	288	7
TAP	3	0	3
TAP	3	48	3
TAP	3	96	1
TAP	3	96	6
TAP	3	276	6
TAP	3	288	1
TAP	3	324	6
TAP	3	336	1
TAP	4	96	1
TAP	4	96	6
TAP	4	240	7
TAP	4	288	1
TAP	4	288	6
TAP	5	0	1
TAP	5	96	0
TAP	5	96	7
TAP	5	228	1
TAP	5	240	1
TAP	5	276	7
TAP	5	288	0
TAP	5	288	7
TAP	6	0	6
TAP	6	48	6
TAP	6	96	0
TAP	6	96	7
TAP	6	192	1
TAP	6	240	1
TAP	6	288	0
TAP	6	288	7
TAP	6	360	1
STR	7	0	1
SI_	7	0	1	96	24	5
TAP	7	168	6
STR	7	192	6
SI_	7	192	6	96	24	2
TAP	7	360	1
STR	8	0	1
SI_	8	0	1	96	24	5
TAP	8	72	6
STR	8	96	6
SI_	8	96	6	96	24	2
TAP	8	240	0
TAP	8	240	7
BRK	8	288	0
BRK	8	288	7
TAP	9	0	1
TAP	9	48	1
TAP	9	96	2
TAP	9	168	3
TAP	9	240	3
TAP	9	288	4
TAP	10	0	6
TAP	10	48	6
TAP	10	96	5
TAP	10	168	4
TAP	10	216	4
TAP	10	240	4
TAP	10	288	3
TAP	11	0	7
TAP	11	48	7
TAP	11	96	0
TAP	11	132	0
TAP	11	168	0
TAP	11	216	1
TAP	11	240	1
TAP	11	288	2
TAP	12	0	0
TAP	12	48	0
TAP	12	96	7
TAP	12	144	7
TAP	12	192	7
TAP	12	240	6
TAP	12	288	5
TAP	12	336	5
TAP	13	0	0
TAP	13	48	0
TAP	13	96	1
TAP	13	144	1
TAP	13	168	1
TAP	13	216	2
TAP	13	240	2
TAP	13	288	3
TAP	13	336	3
TAP	14	0	7
TAP	14	48	7
TAP	14	72	7
TAP	14	96	6
TAP	14	144	6
TAP	14	168	6
TAP	14	192	5
TAP	14	240	5
TAP	14	264	5
TAP	14	288	4
TAP	15	0	0
TAP	15	48	0
TAP	15	72	0
TAP	15	96	1
TAP	15	144	1
TAP	15	168	7
TAP	15	216	7
TAP	15	240	7
TAP	15	264	7
TAP	15	288	6
TAP	15	336	6
TAP	16	0	0
TAP	16	48	0
TAP	16	72	0
TAP	16	96	7
TAP	16	144	7
TAP	16	168	7
TAP	16	216	0
STR	16	240	0
SI_	16	240	0	96	24	3
STR	16	240	7
SI_	16	240	7	96	24	4
TAP	17	0	1
TAP	17	48	1
TAP	17	72	1
TAP	17	96	2
TAP	17	144	2
TAP	17	168	3
TAP	17	216	3
TAP	17	240	3
TAP	17	288	4
TAP	18	0	6
TAP	18	48	6
TAP	18	72	6
TAP	18	96	5
TAP	18	144	5
TAP	18	168	4
TAP	18	216	4
TAP	18	240	4
TAP	18	288	3
TAP	19	0	7
TAP	19	48	7
TAP	19	96	0
TAP	19	132	0
TAP	19	168	0
TAP	19	216	1
TAP	19	240	1
TAP	19	264	1
TAP	19	288	2
TAP	19	336	2
TAP	19	360	2
TAP	20	0	0
TAP	20	24	0
TAP	20	48	0
TAP	20	96	7
TAP	20	120	7
TAP	20	144	7
TAP	20	168	7
TAP	20	192	7
TAP	20	216	6
TAP	20	240	5
TAP	20	288	5
TAP	20	336	5
TAP	21	0	0
TAP	21	48	0
TAP	21	96	1
TAP	21	120	1
TAP	21	144	1
TAP	21	168	2
TAP	21	216	2
TAP	21	240	2
TAP	21	264	2
TAP	21	288	3
TAP	21	336	3
TAP	21	360	3
TAP	22	0	7
TAP	22	36	7
TAP	22	48	7
TAP	22	72	7
TAP	22	96	6
TAP	22	144	6
TAP	22	168	5
TAP	22	216	5
TAP	22	240	5
TAP	22	264	5
TAP	22	288	4
TAP	23	0	0
TAP	23	48	0
TAP	23	72	0
TAP	23	96	1
TAP	23	144	1
TAP	23	168	7
TAP	23	216	7
TAP	23	240	7
TAP	23	264	7
TAP	23	288	6
TAP	23	336	6
TAP	24	0	0
TAP	24	48	0
TAP	24	72	0
TAP	24	96	7
TAP	24	144	7
TAP	24	168	7
TAP	24	216	0
TAP	24	216	7
STR	24	240	0
SI_	24	240	0	96	24	3
STR	24	240	7
SI_	24	240	7	96	24	4
TAP	25	0	7
TAP	25	24	0
TAP	25	48	7
TAP	25	72	0
TAP	25	96	6
TAP	25	120	0
TAP	25	144	7
TAP	25	168	0
TAP	25	192	7
TAP	25	216	0
TAP	25	240	7
TAP	25	264	1
TAP	25	288	7
TAP	25	312	0
TAP	25	336	7
TAP	25	360	0
TAP	26	0	6
TAP	26	24	7
TAP	26	48	6
TAP	26	72	0
TAP	26	96	7
TAP	26	120	0
TAP	26	144	7
TAP	26	168	1
TAP	26	192	0
TAP	26	216	1
TAP	26	240	7
TAP	26	264	0
TAP	26	288	7
TAP	26	312	0
TAP	26	336	7
TAP	26	360	0
TAP	27	0	6
TAP	27	24	1
TAP	27	48	7
TAP	27	72	0
TAP	27	96	7
TAP	27	120	0
TAP	27	144	6
TAP	27	168	1
TAP	27	192	7
TAP	27	216	0
TAP	27	240	7
TAP	27	264	0
TAP	27	288	6
TAP	27	312	1
TAP	27	336	7
TAP	27	360	0
TAP	28	0	6
TAP	28	24	0
TAP	28	48	7
TAP	28	72	0
TAP	28	96	7
TAP	28	120	1
TAP	28	144	7
TAP	28	168	0
TAP	28	192	7
TAP	28	216	0
TAP	28	240	6
TAP	28	264	0
TAP	28	288	7
TAP	28	312	0
TAP	28	336	7
TAP	28	360	0
TAP	29	0	7
TAP	29	24	1
TAP	29	48	0
TAP	29	72	1
TAP	29	96	7
TAP	29	120	1
TAP	29	144	0
TAP	29	168	1
TAP	29	192	7
TAP	29	216	0
TAP	29	240	7
TAP	29	264	0
TAP	29	288	7
TAP	29	312	1
TAP	29	336	0
TAP	29	360	1
TAP	30	0	7
TAP	30	24	0
TAP	30	48	7
TAP	30	72	0
TAP	30	96	6
TAP	30	120	7
TAP	30	144	6
TAP	30	168	0
TAP	30	192	7
TAP	30	216	0
TAP	30	240	7
TAP	30	264	0
TAP	30	288	6
TAP	30	312	7
TAP	30	336	6
TAP	30	360	0
TAP	31	0	7
TAP	31	24	0
TAP	31	48	7
TAP	31	72	0
TAP	31	96	6
TAP	31	120	1
TAP	31	144	6
TAP	31	168	1
TAP	31	192	5
TAP	31	216	2
TAP	31	240	5
TAP	31	264	2
TAP	31	288	6
TAP	31	312	1
TAP	31	336	6
TAP	31	360	1
TAP	32	0	7
TAP	32	24	2
TAP	32	48	7
TAP	32	72	2
TAP	32	96	6
TAP	32	120	1
TAP	32	144	6
TAP	32	168	1
TAP	32	192	5
TAP	32	216	0
TAP	32	240	5
TAP	32	264	0
TAP	32	288	6
TAP	32	312	1
TAP	32	336	6
TAP	32	360	1
TAP	33	0	3
TAP	33	24	2
TAP	33	48	3
TAP	33	72	2
TAP	33	96	4
TAP	33	120	1
TAP	33	144	4
TAP	33	168	1
TAP	33	192	5
TAP	33	216	4
TAP	33	240	5
TAP	33	264	4
TAP	33	288	6
TAP	33	312	3
TAP	33	336	6
TAP	33	360	3
TAP	34	0	4
TAP	34	24	3
TAP	34	48	4
TAP	34	72	3
TAP	34	96	5
TAP	34	120	3
TAP	34	144	4
TAP	34	168	3
TAP	34	192	4
TAP	34	216	2
TAP	34	240	4
TAP	34	264	3
TAP	34	288	5
TAP	34	312	3
TAP	34	336	4
TAP	34	360	3
TAP	35	0	6
TAP	35	24	4
TAP	35	48	6
TAP	35	72	4
TAP	35	96	5
TAP	35	120	3
TAP	35	144	5
TAP	35	168	3
TAP	35	192	4
TAP	35	216	2
TAP	35	240	4
TAP	35	264	2
TAP	35	288	3
TAP	35	312	1
TAP	35	336	3
TAP	35	360	1
TAP	36	0	6
TAP	36	24	2
TAP	36	48	6
TAP	36	72	2
TAP	36	96	6
TAP	36	120	3
TAP	36	144	4
TAP	36	168	3
TAP	36	192	5
TAP	36	216	1
TAP	36	240	5
TAP	36	264	1
TAP	36	288	5
TAP	36	312	3
TAP	36	336	4
TAP	36	360	3
TAP	37	0	6
TAP	37	24	2
TAP	37	48	6
TAP	37	72	2
TAP	37	96	5
TAP	37	120	3
TAP	37	144	5
TAP	37	168	3
BRK	37	192	4
BRK	37	216	4
BRK	37	240	4
TAP	37	264	3
TAP	37	288	5
TAP	37	312	3
TAP	37	336	5
TAP	37	360	3
TAP	38	0	6
TAP	38	24	3
TAP	38	48	6
TAP	38	72	3
TAP	38	96	4
TAP	38	120	2
TAP	38	144	4
TAP	38	168	2
TAP	38	192	5
TAP	38	216	4
TAP	38	240	4
TAP	38	264	2
TAP	38	288	3
TAP	38	312	3
TAP	38	336	4
TAP	38	360	2
TAP	39	0	5
TAP	39	24	4
TAP	39	48	5
TAP	39	72	4
TAP	39	96	3
TAP	39	120	2
TAP	39	144	3
TAP	39	168	2
TAP	39	192	3
TAP	39	216	4
TAP	39	240	3
TAP	39	264	4
TAP	39	288	5
TAP	39	312	2
TAP	39	336	5
TAP	39	360	2
TAP	40	0	7
TAP	40	24	3
TAP	40	48	7
TAP	40	72	3
TAP	40	96	6
TAP	40	120	2
TAP	40	144	6
TAP	40	168	2
TAP	40	192	5
TAP	40	216	1
TAP	40	240	5
TAP	40	264	1
TAP	40	288	4
TAP	40	312	0
TAP	40	336	4
TAP	40	360	0
TAP	41	0	5
TAP	41	24	2
TAP	41	48	5
TAP	41	72	2
TAP	41	96	4
TAP	41	120	3
TAP	41	144	4
TAP	41	168	3
TAP	41	192	7
TAP	41	216	4
TAP	41	240	7
TAP	41	264	4
TAP	41	288	5
TAP	41	312	2
TAP	41	336	5
TAP	41	360	2
TAP	42	0	6
TAP	42	24	1
TAP	42	48	6
TAP	42	72	1
TAP	42	96	7
TAP	42	120	0
TAP	42	144	7
TAP	42	168	0
TAP	42	192	4
TAP	42	216	7
TAP	42	240	4
TAP	42	264	7
TAP	42	288	6
TAP	42	312	1
TAP	42	336	6
TAP	42	360	1
TAP	43	0	0
TAP	43	24	1
TAP	43	48	0
TAP	43	72	1
TAP	43	96	7
TAP	43	120	2
TAP	43	144	7
TAP	43	168	2
TAP	43	192	6
TAP	43	216	3
TAP	43	240	6
TAP	43	264	3
TAP	43	288	5
TAP	43	312	4
TAP	43	336	5
TAP	43	360	4
TAP	44	0	6
TAP	44	24	7
BRK	44	48	5
TAP	44	72	7
TAP	44	96	5
BRK	44	120	0
TAP	44	144	5
TAP	44	168	0
BRK	44	192	4
TAP	44	216	0
TAP	44	240	4
BRK	44	264	1
TAP	44	288	4
TAP	44	312	1
BRK	44	336	3
TAP	44	360	2
HLD	45	0	3	384

T_REC_TAP	507
T_REC_BRK	10
T_REC_XTP	0
T_REC_HLD	1
T_REC_XHO	0
T_REC_STR	8
T_REC_BST	0
T_REC_XST	0
T_REC_TTP	0
T_REC_THO	0
T_REC_SLD	8
T_REC_ALL	534
T_NUM_TAP	515
T_NUM_BRK	10
T_NUM_HLD	1
T_NUM_SLD	8
T_NUM_ALL	534
T_JUDGE_TAP	525
T_JUDGE_HLD	16
T_JUDGE_SLD	8
T_JUDGE_ALL	549
TTM_EACHPAIRS	16
TTM_SCR_TAP	257500
TTM_SCR_BRK	26000
TTM_SCR_HLD	1000
TTM_SCR_SLD	12000
TTM_SCR_ALL	296500
TTM_SCR_S	286650
TTM_SCR_SS	295500
TTM_RAT_ACV	10033

