VERSION	0.00.00	1.03.00
FES_MODE	0
BPM_DEF	105.000	105.000	105.000	105.000
MET_DEF	4	4
RESOLUTION	384
CLK_DEF	384
COMPATIBLE_CODE	MA2

BPM	0	0	105.000
MET	0	0	4	4

TAP	1	96	1
TAP	1	288	0
TAP	1	288	1
TAP	2	96	6
TAP	2	288	6
TAP	2	288	7
TAP	3	96	2
TAP	3	288	2
TAP	3	288	3
TAP	4	96	5
TAP	4	288	4
TAP	4	288	5
TAP	5	96	3
TAP	5	288	0
TAP	5	288	7
TAP	6	0	0
TAP	6	96	0
TAP	6	192	7
TAP	6	288	7
TAP	7	0	5
TAP	7	0	6
TAP	7	192	1
TAP	7	192	2
TAP	8	0	6
TAP	8	0	7
TAP	8	96	0
TAP	8	96	1
BRK	8	288	0
BRK	8	288	7
TAP	9	0	6
TAP	9	48	6
TAP	9	96	6
TAP	9	192	0
TAP	9	240	0
TAP	9	288	0
TAP	10	0	2
TAP	10	48	2
TAP	10	96	2
TAP	10	192	3
TAP	10	240	3
TAP	10	288	3
TAP	11	0	2
TAP	11	96	0
TAP	11	192	7
TAP	11	240	7
TAP	11	288	7
TAP	12	0	0
TAP	12	48	0
TAP	12	96	1
TAP	12	144	2
TAP	12	192	3
TAP	12	240	1
TAP	12	288	7
TAP	13	0	6
TAP	13	48	6
TAP	13	96	6
TAP	13	192	4
TAP	13	240	4
TAP	13	288	4
TAP	14	0	3
TAP	14	48	3
TAP	14	96	3
TAP	14	192	5
TAP	14	240	5
TAP	14	288	5
TAP	15	0	0
TAP	15	48	0
TAP	15	96	0
TAP	15	192	1
TAP	15	240	1
TAP	15	288	1
TAP	16	0	7
TAP	16	48	7
TAP	16	96	6
TAP	16	192	0
TAP	16	240	1
TAP	16	288	0
TAP	16	288	7
TAP	17	0	1
TAP	17	48	2
TAP	17	96	1
TAP	17	192	0
TAP	17	240	7
TAP	17	288	0
TAP	18	0	1
TAP	18	0	2
TAP	18	48	3
TAP	18	96	2
TAP	18	192	0
TAP	18	240	0
TAP	18	288	7
TAP	19	0	5
TAP	19	0	6
TAP	19	48	4
TAP	19	96	5
TAP	19	192	7
TAP	19	240	0
TAP	19	288	1
TAP	20	0	0
TAP	20	0	7
TAP	20	48	6
TAP	20	96	6
TAP	20	192	0
TAP	20	240	1
TAP	20	288	1
TAP	21	0	6
TAP	21	0	7
TAP	21	48	5
TAP	21	96	4
TAP	21	192	0
TAP	21	240	1
TAP	21	288	0
HLD	22	0	7	96
TAP	22	96	6
TAP	22	192	0
TAP	22	240	0
TAP	22	288	1
TAP	23	0	0
TAP	23	0	1
TAP	23	96	0
TAP	23	192	6
TAP	23	192	7
TAP	23	288	7
TAP	24	0	0
TAP	24	0	7
TAP	24	96	1
TAP	24	96	2
BRK	24	288	0
BRK	24	288	7
TAP	25	0	7
TAP	25	48	5
TAP	25	96	4
TAP	25	144	6
TAP	25	192	7
TAP	25	240	0
TAP	25	288	7
TAP	26	0	0
TAP	26	48	2
TAP	26	96	0
TAP	26	144	3
TAP	26	192	0
TAP	26	240	7
TAP	26	288	0
TAP	26	336	1
TAP	27	0	0
TAP	27	48	2
TAP	27	96	3
TAP	27	144	1
TAP	27	192	0
TAP	27	240	7
TAP	27	288	0
TAP	28	0	7
TAP	28	48	5
TAP	28	96	7
TAP	28	144	4
TAP	28	192	7
TAP	28	240	0
TAP	28	288	7
TAP	28	336	6
TAP	29	0	5
TAP	29	48	3
TAP	29	96	5
TAP	29	144	6
TAP	29	192	4
TAP	29	240	3
TAP	29	288	5
TAP	29	336	7
STR	30	0	0
SI_	30	0	0	96	96	3
TAP	31	0	4
TAP	31	48	6
TAP	31	96	4
TAP	31	144	2
TAP	31	192	1
TAP	31	240	3
TAP	31	288	5
STR	32	0	4
SI_	32	0	4	96	96	1
STR	32	0	5
SI_	32	0	5	96	96	0
TAP	33	0	7
TAP	33	48	5
TAP	33	96	6
TAP	33	144	0
TAP	33	192	7
TAP	33	240	5
TAP	33	288	3
STR	34	0	2
SI_	34	0	2	96	96	7
STR	34	192	6
SI_	34	192	6	96	96	3
TAP	35	0	2
TAP	35	48	0
TAP	35	96	2
TAP	35	144	3
TAP	35	192	2
TAP	35	240	0
TAP	35	288	6
STR	36	0	5
SI_	36	0	5	96	96	0
STR	36	192	1
SI_	36	192	1	96	96	4
TAP	37	0	5
TAP	37	48	7
TAP	37	96	0
TAP	37	144	2
TAP	37	192	1
TAP	37	240	7
TAP	37	288	5
STR	38	0	4
SI_	38	0	4	96	96	1
STR	38	192	0
SI_	38	192	0	96	96	5
TAP	39	0	4
TAP	39	48	2
TAP	39	96	4
TAP	39	144	5
TAP	39	192	3
TAP	39	240	1
TAP	39	288	7
STR	40	0	5
SI_	40	0	5	96	96	2
STR	40	0	6
SI_	40	0	6	96	96	1
TAP	41	0	1
TAP	41	48	2
TAP	41	96	3
HLD	41	168	1	120
TAP	41	240	0
TAP	41	288	0
TAP	42	0	7
TAP	42	48	6
TAP	42	96	5
HLD	42	168	7	120
TAP	42	240	0
TAP	42	288	0
TAP	43	0	1
TAP	43	48	3
TAP	43	96	1
TAP	43	144	0
TAP	43	192	2
TAP	43	240	4
TAP	43	288	6
HLD	44	0	5	288
HLD	45	0	0	288
HLD	45	0	6	288

T_REC_TAP	214
T_REC_BRK	4
T_REC_XTP	0
T_REC_HLD	6
T_REC_XHO	0
T_REC_STR	11
T_REC_BST	0
T_REC_XST	0
T_REC_TTP	0
T_REC_THO	0
T_REC_SLD	11
T_REC_ALL	246
T_NUM_TAP	225
T_NUM_BRK	4
T_NUM_HLD	6
T_NUM_SLD	11
T_NUM_ALL	246
T_JUDGE_TAP	229
T_JUDGE_HLD	50
T_JUDGE_SLD	11
T_JUDGE_ALL	290
TTM_EACHPAIRS	23
TTM_SCR_TAP	112500
TTM_SCR_BRK	10400
TTM_SCR_HLD	6000
TTM_SCR_SLD	16500
TTM_SCR_ALL	145400
TTM_SCR_S	140650
TTM_SCR_SS	145000
TTM_RAT_ACV	10027

