VERSION	0.00.00	1.03.00
FES_MODE	0
BPM_DEF	105.000	105.000	105.000	105.000
MET_DEF	4	4
RESOLUTION	384
CLK_DEF	384
COMPATIBLE_CODE	MA2

BPM	0	0	105.000
MET	0	0	4	4

HLD	1	96	1	192
HLD	3	96	2	192
TAP	5	96	1
TAP	5	288	1
TAP	6	96	0
TAP	6	288	0
TAP	7	0	0
TAP	7	0	7
TAP	7	192	0
TAP	7	192	7
TAP	8	0	1
TAP	8	0	6
BRK	8	288	7
TAP	9	0	0
TAP	9	96	1
TAP	9	288	0
TAP	10	0	7
TAP	10	96	6
TAP	10	288	7
TAP	11	0	0
TAP	11	96	0
TAP	11	288	1
TAP	12	0	0
TAP	12	96	0
TAP	12	288	7
TAP	13	0	6
TAP	13	96	6
TAP	13	288	5
TAP	14	0	6
TAP	14	96	6
TAP	14	288	7
HLD	15	0	0	288
HLD	16	0	1	288
STR	17	0	2
SI_	17	0	2	96	96	7
TAP	18	96	7
TAP	18	288	7
STR	19	0	6
SI_	19	0	6	96	96	3
TAP	20	96	3
TAP	20	288	3
STR	21	0	4
SI_	21	0	4	96	96	7
TAP	22	96	7
TAP	22	288	7
TAP	23	0	0
TAP	23	0	7
TAP	23	192	0
TAP	23	192	1
TAP	24	0	7
TAP	24	96	7
BRK	24	288	7
TAP	25	96	0
TAP	25	192	1
TAP	25	288	2
HLD	26	96	1	192
TAP	27	96	0
TAP	27	192	7
TAP	27	288	6
HLD	28	96	7	192
TAP	29	96	7
TAP	29	192	0
TAP	29	288	1
HLD	30	96	0	192
TAP	31	96	0
TAP	31	192	7
STR	31	288	6
SI_	31	288	6	96	192	1
TAP	33	96	2
TAP	33	192	3
TAP	33	288	2
TAP	34	96	0
TAP	34	192	1
TAP	34	288	0
TAP	35	96	7
TAP	35	192	6
TAP	35	288	7
TAP	36	96	6
TAP	36	192	5
TAP	36	288	4
TAP	37	0	6
TAP	37	0	7
TAP	37	96	0
TAP	37	192	1
TAP	37	288	2
TAP	38	96	1
TAP	38	192	0
TAP	38	288	7
TAP	39	0	0
TAP	39	0	1
TAP	39	96	2
TAP	39	192	3
TAP	39	288	4
BRK	40	0	5
HLD	41	0	6	96
TAP	41	240	0
TAP	41	288	0
HLD	42	0	0	96
TAP	42	240	2
TAP	42	288	2
TAP	43	0	1
TAP	43	96	1
TAP	43	192	0
TAP	43	288	0
HLD	44	0	7	288
BRK	45	0	7

T_REC_TAP	84
T_REC_BRK	4
T_REC_XTP	0
T_REC_HLD	10
T_REC_XHO	0
T_REC_STR	4
T_REC_BST	0
T_REC_XST	0
T_REC_TTP	0
T_REC_THO	0
T_REC_SLD	4
T_REC_ALL	106
T_NUM_TAP	88
T_NUM_BRK	4
T_NUM_HLD	10
T_NUM_SLD	4
T_NUM_ALL	106
T_JUDGE_TAP	92
T_JUDGE_HLD	84
T_JUDGE_SLD	4
T_JUDGE_ALL	180
TTM_EACHPAIRS	7
TTM_SCR_TAP	44000
TTM_SCR_BRK	10400
TTM_SCR_HLD	10000
TTM_SCR_SLD	6000
TTM_SCR_ALL	70400
TTM_SCR_S	67900
TTM_SCR_SS	70000
TTM_RAT_ACV	10057

