VERSION	0.00.00	1.03.00
FES_MODE	0
BPM_DEF	200.000	200.000	200.000	200.000
MET_DEF	4	4
RESOLUTION	384
CLK_DEF	384
COMPATIBLE_CODE	MA2

BPM	0	0	200.000
MET	0	0	4	4

TAP	1	0	0
TAP	1	24	7
TAP	1	48	0
TAP	1	72	7
TAP	1	96	0
TAP	1	120	7
TAP	1	144	0
TAP	1	168	7
TAP	1	192	0
TAP	1	216	7
TAP	1	240	0
TAP	1	264	7
TAP	1	288	0
TAP	1	312	7
TAP	1	336	0
TAP	1	360	7
TAP	2	0	0
TAP	2	12	1
TAP	2	24	2
TAP	2	36	3
TAP	2	48	4
TAP	2	60	5
TAP	2	72	6
TAP	2	84	7
TAP	2	96	0
TAP	2	108	1
TAP	2	120	2
TAP	2	132	3
TAP	2	144	4
TAP	2	156	5
TAP	2	168	6
TAP	2	180	7
BRK	2	192	0
TAP	3	0	0
TAP	3	0	7
TAP	3	96	6
TAP	3	96	7
TAP	3	192	0
TAP	3	192	1
HLD	3	240	2	144
TAP	3	240	3
TAP	3	264	4
TAP	3	288	5
TAP	3	312	6
TAP	3	336	7
TAP	3	360	0
STR	4	0	1
SI_	4	0	1	96	48	5
TAP	4	72	3
TAP	4	144	6
STR	4	192	7
SI_	4	192	7	96	48	3
TAP	4	288	4
TAP	4	336	2
TAP	5	48	0
TAP	5	48	1
TAP	5	144	5
TAP	5	144	6
TAP	5	240	2
TAP	5	240	3
TAP	5	336	4
TAP	5	336	5
TAP	6	48	1
TAP	6	48	2
TAP	6	144	6
TAP	6	144	7
TAP	6	192	0
TAP	6	240	1
TAP	6	336	0
TAP	6	336	7
TAP	7	0	5
TAP	7	0	6
TAP	7	48	4
TAP	7	72	3
TAP	7	96	4
TAP	7	192	5
TAP	7	192	6
TAP	7	240	7
TAP	7	264	0
TAP	7	288	7
TAP	8	0	0
TAP	8	0	1
TAP	8	96	5
TAP	8	96	6
TAP	8	192	2
TAP	8	192	3
TAP	8	288	4
TAP	8	288	5
TAP	9	0	0
TAP	9	0	7
TAP	9	96	6
TAP	9	96	7
TAP	9	192	0
TAP	9	192	1
HLD	9	240	2	144
TAP	9	240	3
TAP	9	264	4
TAP	9	288	5
TAP	9	312	6
TAP	9	336	7
TAP	9	360	0
STR	10	0	1
SI_	10	0	1	96	48	5
TAP	10	72	3
TAP	10	144	6
STR	10	192	7
SI_	10	192	7	96	48	3
TAP	10	288	4
TAP	10	336	2
TAP	11	48	0
TAP	11	48	1
TAP	11	144	5
TAP	11	144	6
TAP	11	240	2
TAP	11	240	3
TAP	11	336	4
TAP	11	336	5
TAP	12	48	1
TAP	12	48	2
TAP	12	144	6
TAP	12	144	7
TAP	12	240	0
TAP	12	288	2
HLD	12	336	4	144
TAP	13	48	5
TAP	13	96	5
TAP	13	192	3
TAP	13	240	1
STR	13	288	0
SI_	13	288	0	96	48	4
TAP	13	336	7
TAP	14	0	6
STR	14	48	5
SI_	14	48	5	96	48	1
TAP	14	96	4
TAP	14	144	3
STR	14	240	0
SCR	14	240	0	96	48	3
TAP	14	288	7
STR	14	336	0
SCL	14	336	0	96	48	5
TAP	15	48	1
TAP	15	96	0
TAP	15	144	7
TAP	15	192	6
TAP	15	240	5
TAP	15	288	4
TAP	15	336	3
TAP	16	0	2
TAP	16	48	1
TAP	16	96	0
TAP	16	144	7
TAP	16	192	6
TAP	16	240	5
TAP	16	288	4
TAP	16	336	3
TAP	17	0	1
TAP	17	0	2
TAP	17	96	3
TAP	17	96	4
TAP	17	192	1
TAP	17	192	2
TAP	17	240	0
TAP	17	288	7
TAP	17	336	6
TAP	17	336	7
TAP	18	48	0
TAP	18	48	1
TAP	18	96	2
TAP	18	144	3
TAP	18	144	4
TAP	18	192	5
TAP	18	240	6
TAP	18	240	7
TAP	18	288	0
TAP	18	336	1
TAP	18	336	2
TAP	19	0	0
TAP	19	0	7
TAP	19	96	3
TAP	19	96	6
TAP	19	192	1
TAP	19	192	2
TAP	19	240	3
TAP	19	288	4
TAP	19	336	5
STR	19	336	6
SI_	19	336	6	96	48	3
TAP	20	48	4
TAP	20	96	2
STR	20	144	0
SI_	20	144	0	96	47	4
TAP	20	240	1
TAP	20	288	5
BRK	20	336	3
TAP	21	0	2
TAP	21	0	4
TAP	21	96	3
TAP	21	96	5
TAP	21	192	1
TAP	21	192	2
TAP	21	240	0
TAP	21	288	7
TAP	21	336	5
TAP	21	336	6
TAP	22	48	0
TAP	22	48	1
TAP	22	96	7
TAP	22	144	6
TAP	22	144	7
TAP	22	192	0
TAP	22	240	0
TAP	22	240	1
TAP	22	288	7
TAP	22	336	5
TAP	22	336	6
STR	23	0	7
SI_	23	0	7	96	48	3
STR	23	96	1
SI_	23	96	1	96	48	4
STR	23	192	3
SI_	23	192	3	96	48	7
BRK	23	288	0
BRK	23	336	0
TAP	24	48	7
TAP	24	72	6
TAP	24	96	5
TAP	24	120	4
TAP	24	144	3
TAP	24	168	2
TAP	24	192	1
BRK	24	240	1
STR	25	0	0
SI_	25	0	0	96	24	4
TAP	25	48	1
TAP	25	144	5
STR	25	192	6
SI_	25	192	6	96	24	2
TAP	25	240	5
TAP	25	336	7
STR	26	0	0
SI_	26	0	0	96	24	4
TAP	26	48	2
TAP	26	144	6
STR	26	192	7
SI_	26	192	7	96	24	3
TAP	26	240	0
TAP	26	336	2
STR	27	0	3
SI_	27	0	3	96	24	0
TAP	27	48	2
TAP	27	96	4
TAP	27	144	5
STR	27	192	6
SI_	27	192	6	96	24	2
TAP	27	240	7
TAP	27	288	5
STR	27	336	4
SI_	27	336	4	96	24	0
STR	28	48	7
SI_	28	48	7	96	24	4
TAP	28	96	7
STR	28	144	0
SI_	28	144	0	96	24	3
BRK	28	240	7
STR	29	0	6
SI_	29	0	6	96	24	2
TAP	29	48	5
TAP	29	96	4
TAP	29	144	3
STR	29	192	1
SI_	29	192	1	96	24	5
TAP	29	240	0
TAP	29	288	7
TAP	29	336	6
STR	30	0	4
SI_	30	0	4	96	24	0
TAP	30	48	3
TAP	30	96	2
TAP	30	144	1
STR	30	192	7
SI_	30	192	7	96	24	3
TAP	30	240	6
TAP	30	288	5
TAP	30	336	4
STR	31	0	2
SI_	31	0	2	96	48	7
STR	31	0	3
SI_	31	0	3	96	48	6
TAP	31	48	2
TAP	31	48	3
TAP	31	192	0
TAP	31	192	7
STR	31	240	0
SI_	31	240	0	96	144	3
STR	31	240	7
SI_	31	240	7	96	144	4
TAP	33	0	2
TAP	33	24	3
TAP	33	48	2
TAP	33	96	1
TAP	33	120	0
TAP	33	144	1
TAP	33	192	0
TAP	33	216	7
TAP	33	240	0
TAP	33	288	1
TAP	33	336	2
TAP	34	0	3
TAP	34	24	4
TAP	34	48	3
TAP	34	96	4
TAP	34	120	5
TAP	34	144	4
TAP	34	192	6
TAP	34	216	7
TAP	34	240	6
TAP	34	288	5
TAP	34	336	4
TAP	35	0	5
TAP	35	24	6
TAP	35	48	7
TAP	35	72	0
TAP	35	96	1
TAP	35	144	1
TAP	35	192	0
TAP	35	216	7
TAP	35	240	6
TAP	35	264	5
TAP	35	288	4
TAP	35	336	4
TAP	36	0	7
TAP	36	24	0
TAP	36	48	1
TAP	36	72	2
TAP	36	96	3
TAP	36	120	4
TAP	36	144	5
TAP	36	168	6
TAP	36	192	7
TAP	36	240	1
BRK	36	288	2
BRK	36	288	5
TAP	37	0	0
TAP	37	0	7
TAP	37	48	1
TAP	37	96	0
TAP	37	96	7
TAP	37	144	6
TAP	37	192	7
TAP	37	240	0
TAP	37	288	1
TAP	37	336	2
TAP	38	0	3
TAP	38	0	4
TAP	38	48	5
TAP	38	96	3
TAP	38	96	4
TAP	38	144	2
TAP	38	192	3
TAP	38	240	4
TAP	38	288	5
TAP	38	336	6
TAP	39	0	0
TAP	39	0	7
TAP	39	48	1
TAP	39	96	2
TAP	39	144	3
TAP	39	192	4
TAP	39	192	5
TAP	39	240	3
TAP	39	288	2
TAP	39	336	1
HLD	40	0	0	288
BRK	40	288	7
TAP	41	0	2
HLD	41	0	5	96
TAP	41	96	3
TAP	41	144	4
HLD	41	192	2	96
TAP	41	192	5
TAP	41	288	4
TAP	41	336	3
TAP	42	0	2
TAP	42	48	1
TAP	42	96	0
TAP	42	144	7
STR	42	192	6
SI_	42	192	6	96	48	2
BRK	42	288	0
BRK	43	48	2
BRK	43	96	3
BRK	43	144	2
BRK	43	192	1
BRK	43	288	0
BRK	43	336	0
BRK	44	0	7
BRK	44	48	7
BRK	44	144	6
BRK	44	192	6
BRK	44	288	0
BRK	44	288	7
STR	45	0	1
SI_	45	0	1	96	192	5
TAP	45	96	2
TAP	45	192	7
TAP	45	288	3
STR	46	0	4
SI_	46	0	4	96	192	0
TAP	46	96	5
TAP	46	192	2
TAP	46	288	6
STR	47	0	7
SI_	47	0	7	96	192	4
STR	47	192	0
SI_	47	192	0	96	192	3
HLD	48	0	7	288
TAP	49	48	0
TAP	49	48	7
TAP	49	144	2
TAP	49	144	3
TAP	49	240	0
TAP	49	240	1
TAP	49	336	4
TAP	49	336	5
TAP	50	48	6
TAP	50	48	7
TAP	50	144	4
TAP	50	144	5
TAP	50	240	2
TAP	50	240	3
TAP	50	336	0
TAP	50	336	1
HLD	51	0	7	96
STR	51	96	6
SCR	51	96	6	96	48	1
BRK	51	336	1
BRK	51	336	6
HLD	52	336	2	144
TAP	53	96	4
TAP	53	192	6
TAP	53	288	0
TAP	53	288	3
HLD	53	336	7	144
TAP	54	48	4
TAP	54	96	1
TAP	54	192	3
TAP	54	240	2
HLD	54	336	4	240
TAP	55	240	6
TAP	55	288	7
TAP	55	336	0
TAP	56	96	7
TAP	56	240	6
TAP	56	336	0
TAP	57	0	0
TAP	57	96	7
TAP	57	144	5
TAP	57	192	4
TAP	57	240	3
TAP	57	288	2
HLD	57	336	1	144
TAP	58	96	0
TAP	58	144	0
TAP	58	240	1
HLD	58	336	2	144
TAP	59	0	3
TAP	59	144	3
TAP	59	288	5
TAP	60	96	7
TAP	60	240	7
TAP	61	0	0
STR	61	0	1
SI_	61	0	1	96	48	4
BRK	61	96	0
STR	61	192	6
SI_	61	192	6	96	48	3
TAP	61	192	7
BRK	61	288	7
TAP	62	0	0
STR	62	0	1
SI_	62	0	1	96	48	4
BRK	62	96	0
STR	62	192	6
SI_	62	192	6	96	48	3
TAP	62	192	7
BRK	62	288	7
TAP	63	0	0
STR	63	0	1
SI_	63	0	1	96	48	4
BRK	63	96	0
STR	63	192	6
SI_	63	192	6	96	48	3
TAP	63	192	7
BRK	63	288	7
TAP	64	0	0
STR	64	0	1
SI_	64	0	1	96	48	4
BRK	64	96	0
STR	64	192	6
SI_	64	192	6	96	48	3
TAP	64	192	7
BRK	64	288	7
TAP	65	0	1
TAP	65	48	3
TAP	65	96	2
TAP	65	144	4
TAP	65	192	1
TAP	65	240	0
TAP	65	288	7
TAP	65	336	6
TAP	66	0	7
TAP	66	48	1
TAP	66	96	0
TAP	66	144	2
TAP	66	192	7
TAP	66	240	6
TAP	66	288	5
TAP	66	336	4
STR	67	0	5
SI_	67	0	5	96	48	1
TAP	67	48	5
STR	67	96	6
SI_	67	96	6	96	48	2
TAP	67	144	6
STR	67	192	7
SI_	67	192	7	96	48	3
TAP	67	240	7
STR	67	288	0
SI_	67	288	0	96	48	4
TAP	67	336	0
STR	68	0	1
SI_	68	0	1	96	48	5
TAP	68	48	1
STR	68	96	2
SI_	68	96	2	96	48	6
TAP	68	144	2
STR	68	192	3
SI_	68	192	3	96	48	7
TAP	68	240	3
STR	68	288	4
SI_	68	288	4	96	48	0
STR	69	0	0
SI_	69	0	0	96	48	3
STR	69	96	3
SI_	69	96	3	96	48	6
STR	69	192	6
SI_	69	192	6	96	48	1
STR	69	288	1
SI_	69	288	1	96	48	4
STR	70	0	4
SI_	70	0	4	96	48	7
STR	70	96	7
SI_	70	96	7	96	48	3
STR	70	192	3
SI_	70	192	3	96	48	0
BRK	70	336	7
BRK	71	48	7
HLD	71	192	1	144
BRK	71	336	0
BRK	72	48	0
HLD	72	192	7	96
BRK	72	336	6
BRK	73	48	6
HLD	73	192	7	144
BRK	73	336	0
BRK	74	48	0
HLD	74	192	1	96
STR	74	336	2
SI_	74	336	2	96	48	7
HLD	75	48	0	240
BRK	75	336	7
BRK	76	48	7
TAP	76	144	6
BRK	76	192	6
STR	76	336	4
SI_	76	336	4	96	48	0
TAP	76	336	5
HLD	77	48	6	240
BRK	77	336	0
BRK	78	48	0
TAP	78	144	1
BRK	78	192	1
TAP	79	0	1
TAP	79	0	6
TAP	79	48	7
TAP	79	96	3
TAP	79	144	5
TAP	79	192	1
TAP	79	240	0
TAP	79	288	7
TAP	79	336	0
TAP	79	336	7
TAP	80	0	0
TAP	80	0	1
TAP	80	48	2
TAP	80	96	4
TAP	80	144	3
TAP	80	192	6
TAP	80	240	1
TAP	80	264	0
TAP	80	288	1
TAP	80	336	7
TAP	80	360	0
TAP	81	0	7
TAP	81	48	2
TAP	81	96	6
TAP	81	144	0
TAP	81	192	4
TAP	81	240	2
TAP	81	288	7
TAP	81	336	0
BRK	82	0	1
BRK	82	0	2
BRK	82	96	3
BRK	82	96	7
BRK	82	192	1
BRK	82	192	5
BRK	82	288	6
BRK	82	288	7
TAP	83	0	0
STR	83	0	4
SI_	83	0	4	96	48	0
TAP	83	48	1
TAP	83	96	2
TAP	83	144	3
STR	83	192	0
SCR	83	192	0	96	48	3
TAP	83	192	4
TAP	83	240	5
TAP	83	288	6
TAP	83	336	7
TAP	84	0	0
STR	84	0	4
SI_	84	0	4	96	48	0
TAP	84	48	1
TAP	84	96	2
TAP	84	144	3
STR	84	192	4
SCL	84	192	4	96	48	1
TAP	84	240	6
TAP	84	264	5
TAP	84	288	4
TAP	84	336	3
TAP	84	360	4
STR	85	0	5
SCL	85	0	5	96	48	2
TAP	85	48	6
TAP	85	96	7
TAP	85	144	0
TAP	85	192	1
STR	85	192	5
SI_	85	192	5	96	48	1
TAP	85	240	2
TAP	85	288	3
TAP	85	336	4
STR	86	0	6
SI_	86	0	6	96	48	3
TAP	86	48	6
STR	86	96	1
SI_	86	96	1	96	48	5
TAP	86	144	1
STR	86	192	7
SI_	86	192	7	96	48	3
TAP	86	240	7
TAP	86	288	0
TAP	86	336	0
HLD	87	0	7	288
TAP	87	336	1
TAP	87	336	6
TAP	88	48	1
TAP	88	48	5
TAP	88	144	7
TAP	88	192	0
TAP	88	192	4
TAP	88	288	3
TAP	88	288	7
TAP	88	336	1
TAP	88	336	5

T_REC_TAP	465
T_REC_BRK	54
T_REC_XTP	0
T_REC_HLD	20
T_REC_XHO	0
T_REC_STR	70
T_REC_BST	0
T_REC_XST	0
T_REC_TTP	0
T_REC_THO	0
T_REC_SLD	70
T_REC_ALL	679
T_NUM_TAP	535
T_NUM_BRK	54
T_NUM_HLD	20
T_NUM_SLD	70
T_NUM_ALL	679
T_JUDGE_TAP	589
T_JUDGE_HLD	70
T_JUDGE_SLD	70
T_JUDGE_ALL	729
TTM_EACHPAIRS	96
TTM_SCR_TAP	267500
TTM_SCR_BRK	140400
TTM_SCR_HLD	20000
TTM_SCR_SLD	105000
TTM_SCR_ALL	532900
TTM_SCR_S	511700
TTM_SCR_SS	527500
TTM_RAT_ACV	10102

