VERSION	0.00.00	1.03.00
FES_MODE	0
BPM_DEF	200.000	200.000	200.000	200.000
MET_DEF	4	4
RESOLUTION	384
CLK_DEF	384
COMPATIBLE_CODE	MA2

BPM	0	0	200.000
MET	0	0	4	4

STR	1	0	3
SI_	1	0	3	96	192	7
TAP	2	0	0
TAP	2	96	0
HLD	2	192	0	192
TAP	3	0	6
TAP	3	96	6
TAP	3	96	7
TAP	3	192	0
TAP	3	288	0
TAP	3	288	1
TAP	4	0	2
TAP	4	96	2
TAP	4	96	3
TAP	4	192	4
TAP	4	192	5
TAP	4	288	2
TAP	4	288	3
TAP	5	0	4
TAP	5	96	3
TAP	5	96	4
TAP	5	192	4
TAP	5	288	3
TAP	5	288	4
TAP	6	0	4
TAP	6	96	3
TAP	6	96	4
TAP	6	192	5
TAP	6	240	6
TAP	6	288	7
TAP	7	0	0
TAP	7	48	0
TAP	7	96	0
TAP	7	96	1
TAP	7	192	7
TAP	7	240	7
TAP	7	288	6
TAP	7	288	7
TAP	8	0	0
TAP	8	0	1
TAP	8	96	6
TAP	8	96	7
TAP	8	192	0
TAP	8	192	1
TAP	8	288	0
TAP	8	288	7
TAP	9	0	1
TAP	9	96	0
TAP	9	96	1
TAP	9	192	7
TAP	9	288	6
TAP	9	288	7
TAP	10	0	5
TAP	10	96	4
TAP	10	96	5
TAP	10	192	2
TAP	10	192	3
TAP	10	288	4
TAP	10	288	5
TAP	11	0	3
TAP	11	96	3
TAP	11	96	4
TAP	11	192	3
TAP	11	288	3
TAP	11	288	4
TAP	12	0	3
TAP	12	96	3
TAP	12	96	4
TAP	12	192	2
TAP	12	240	1
TAP	12	288	0
STR	13	0	7
SI_	13	0	7	96	96	3
TAP	13	48	7
STR	13	192	0
SI_	13	192	0	96	96	4
TAP	13	240	0
TAP	14	0	7
TAP	14	96	6
TAP	14	96	7
TAP	14	192	0
TAP	14	192	1
TAP	14	288	6
TAP	14	288	7
TAP	15	0	0
TAP	15	96	0
TAP	15	96	7
TAP	15	192	0
TAP	15	288	0
TAP	15	288	7
STR	16	0	1
SI_	16	0	1	96	192	6
STR	16	0	2
SI_	16	0	2	96	192	5
TAP	17	0	4
TAP	17	96	4
TAP	17	96	5
TAP	17	192	4
TAP	17	240	3
TAP	17	288	4
TAP	17	336	6
TAP	18	48	4
TAP	18	48	5
TAP	18	144	5
TAP	18	240	4
TAP	18	240	5
TAP	18	336	5
TAP	19	0	3
TAP	19	96	2
TAP	19	96	3
TAP	19	192	3
TAP	19	240	4
TAP	19	288	3
TAP	19	336	1
STR	20	48	1
SI_	20	48	1	96	144	6
TAP	21	0	3
TAP	21	96	3
TAP	21	96	4
TAP	21	192	3
TAP	21	240	2
TAP	21	288	3
TAP	21	336	6
TAP	22	48	4
TAP	22	48	5
TAP	22	144	1
TAP	22	240	2
TAP	22	240	3
TAP	22	336	7
HLD	23	0	0	192
HLD	23	192	7	384
STR	23	288	0
SCR	23	288	0	96	192	3
HLD	24	336	4	48
HLD	24	336	5	48
TAP	25	96	3
TAP	25	96	4
TAP	25	192	2
TAP	25	192	3
TAP	25	288	3
TAP	25	288	4
TAP	26	0	1
TAP	26	0	2
TAP	26	96	3
TAP	26	96	4
TAP	26	192	4
TAP	26	192	5
TAP	26	288	3
TAP	26	288	4
TAP	27	0	5
TAP	27	0	6
TAP	27	96	3
TAP	27	96	4
TAP	27	192	2
TAP	27	192	3
TAP	27	288	3
TAP	27	288	4
TAP	28	0	1
TAP	28	0	2
TAP	28	96	2
TAP	28	96	3
TAP	28	192	5
TAP	28	192	6
TAP	28	288	4
TAP	28	288	5
TAP	29	0	0
TAP	29	0	1
TAP	29	96	4
TAP	29	96	5
TAP	29	192	0
TAP	29	192	1
TAP	29	288	4
TAP	29	288	5
TAP	30	0	6
TAP	30	0	7
TAP	30	96	2
TAP	30	96	3
TAP	30	192	6
TAP	30	192	7
TAP	30	288	2
TAP	30	288	3
HLD	31	0	0	96
HLD	31	0	7	96
HLD	31	192	6	384
TAP	31	192	7
STR	31	288	2
SCL	31	288	2	96	192	7
TAP	31	336	2
TAP	33	0	0
TAP	33	48	7
TAP	33	96	0
TAP	33	144	7
TAP	33	192	0
TAP	33	240	7
TAP	33	288	0
TAP	33	336	7
TAP	34	0	1
TAP	34	48	7
TAP	34	96	1
TAP	34	144	7
TAP	34	192	0
TAP	34	240	6
TAP	34	288	0
TAP	34	336	6
TAP	35	0	7
TAP	35	48	6
TAP	35	96	7
TAP	35	144	6
TAP	35	192	1
TAP	35	240	0
TAP	35	288	1
TAP	35	336	0
TAP	36	0	1
TAP	36	48	1
TAP	36	96	1
TAP	36	144	5
STR	36	192	0
SI_	36	192	0	96	96	4
TAP	37	0	2
TAP	37	48	4
TAP	37	96	2
TAP	37	144	4
TAP	37	192	5
TAP	37	240	3
TAP	37	288	5
TAP	37	336	3
TAP	38	0	2
TAP	38	48	3
TAP	38	96	2
TAP	38	144	3
TAP	38	192	5
TAP	38	240	4
TAP	38	288	5
TAP	38	336	4
TAP	39	0	2
TAP	39	48	3
TAP	39	96	5
TAP	39	144	4
TAP	39	192	2
TAP	39	240	3
TAP	39	288	5
TAP	39	336	4
TAP	40	0	2
STR	40	48	2
SCR	40	48	2	96	144	5
HLD	40	48	6	240
TAP	41	0	0
TAP	41	0	1
TAP	41	96	4
TAP	41	96	5
TAP	41	192	6
TAP	41	192	7
TAP	41	288	2
TAP	41	288	3
TAP	42	0	0
TAP	42	48	7
TAP	42	96	0
TAP	42	144	7
BRK	42	192	0
TAP	43	0	6
TAP	43	0	7
TAP	43	96	2
TAP	43	96	3
TAP	43	192	0
TAP	43	192	1
TAP	43	288	4
TAP	43	288	5
TAP	44	0	7
TAP	44	48	0
TAP	44	144	7
BRK	44	192	0
TAP	45	0	0
TAP	45	0	7
TAP	45	96	0
TAP	45	96	7
TAP	45	192	0
TAP	45	192	1
TAP	45	240	0
TAP	45	240	1
TAP	45	288	0
TAP	45	288	1
TAP	46	0	0
TAP	46	0	7
TAP	46	96	0
TAP	46	96	7
TAP	46	192	6
TAP	46	192	7
TAP	46	240	6
TAP	46	240	7
TAP	46	288	6
TAP	46	288	7
TAP	47	0	1
TAP	47	48	7
TAP	47	96	0
TAP	47	144	6
TAP	47	192	1
TAP	47	240	7
TAP	47	288	0
TAP	47	336	6
STR	48	0	3
SI_	48	0	3	96	192	0
STR	48	0	4
SI_	48	0	4	96	192	7
TAP	49	48	0
TAP	49	144	0
TAP	49	240	7
TAP	49	336	7
TAP	50	48	0
TAP	50	48	6
TAP	50	144	1
TAP	50	144	7
TAP	50	240	0
TAP	50	240	6
TAP	50	336	1
TAP	50	336	7
TAP	51	0	2
HLD	51	48	2	240
HLD	51	192	5	96
STR	51	336	2
SI_	51	336	2	96	144	7
STR	51	336	5
SI_	51	336	5	96	144	0
HLD	53	0	7	144
TAP	53	144	6
TAP	53	192	6
TAP	53	192	7
HLD	54	0	0	144
TAP	54	144	1
TAP	54	192	0
TAP	54	192	1
HLD	55	0	6	144
TAP	55	144	7
TAP	55	192	0
TAP	55	192	7
HLD	56	0	1	144
TAP	56	144	0
TAP	56	192	0
TAP	56	192	7
HLD	57	0	5	144
TAP	57	144	3
TAP	57	192	2
TAP	57	192	3
HLD	58	0	2	144
TAP	58	144	4
TAP	58	192	4
TAP	58	192	5
HLD	59	0	4	144
TAP	59	144	5
TAP	59	192	3
TAP	59	192	5
HLD	60	0	3	144
TAP	60	144	2
TAP	60	192	2
TAP	60	192	4
TAP	61	0	6
TAP	61	0	7
BRK	61	96	0
BRK	61	96	7
TAP	61	192	6
TAP	61	192	7
BRK	61	288	0
BRK	61	288	7
TAP	62	0	0
TAP	62	0	1
BRK	62	96	0
BRK	62	96	7
TAP	62	192	0
TAP	62	192	1
BRK	62	288	0
BRK	62	288	7
TAP	63	0	5
TAP	63	0	6
BRK	63	96	0
BRK	63	96	7
TAP	63	192	5
TAP	63	192	6
BRK	63	288	0
BRK	63	288	7
TAP	64	0	1
TAP	64	0	2
BRK	64	96	0
BRK	64	96	7
TAP	64	192	1
TAP	64	192	2
BRK	64	288	0
BRK	64	288	7
TAP	65	0	4
TAP	65	0	5
BRK	65	96	0
BRK	65	96	7
TAP	65	192	4
TAP	65	192	5
BRK	65	288	0
BRK	65	288	7
TAP	66	0	2
TAP	66	0	3
BRK	66	96	0
BRK	66	96	7
TAP	66	192	2
TAP	66	192	3
BRK	66	288	0
BRK	66	288	7
TAP	67	0	0
TAP	67	192	0
HLD	68	0	7	192
BRK	68	192	0
TAP	69	0	7
TAP	69	48	6
TAP	69	48	7
TAP	69	144	5
TAP	69	144	6
TAP	69	240	4
TAP	69	240	5
TAP	69	336	3
TAP	69	336	4
TAP	70	48	2
TAP	70	48	3
TAP	70	144	1
TAP	70	144	2
TAP	70	240	0
TAP	70	240	1
TAP	70	336	0
TAP	70	336	7
TAP	71	48	7
TAP	71	96	6
TAP	71	192	7
TAP	71	240	0
TAP	71	288	1
TAP	72	0	7
TAP	72	48	6
TAP	72	96	5
TAP	72	192	7
TAP	72	240	0
TAP	72	288	1
TAP	72	336	2
TAP	73	48	0
TAP	73	96	1
TAP	73	192	0
TAP	73	240	7
TAP	73	288	6
TAP	74	0	0
TAP	74	48	1
TAP	74	96	2
TAP	74	192	0
TAP	74	240	7
TAP	74	288	6
TAP	74	336	5
TAP	75	48	7
TAP	75	96	6
TAP	75	192	7
TAP	75	240	0
TAP	75	288	1
TAP	75	336	2
TAP	76	48	7
TAP	76	96	6
TAP	76	144	5
TAP	76	192	6
TAP	76	240	7
TAP	76	288	0
TAP	76	336	1
TAP	77	48	0
TAP	77	96	1
TAP	77	192	0
TAP	77	240	7
TAP	77	288	6
TAP	77	336	5
TAP	78	48	0
TAP	78	96	1
TAP	78	144	2
TAP	78	192	1
TAP	78	240	0
TAP	78	288	7
TAP	78	336	6
TAP	79	48	7
TAP	79	96	0
TAP	79	144	1
TAP	79	192	7
TAP	79	240	6
TAP	79	288	5
TAP	79	336	7
TAP	80	0	0
TAP	80	48	1
TAP	80	96	7
TAP	80	144	6
TAP	80	192	5
TAP	80	240	7
TAP	80	288	0
TAP	80	336	1
TAP	81	48	0
TAP	81	96	7
TAP	81	144	6
TAP	81	192	0
TAP	81	240	1
TAP	81	288	2
TAP	81	336	0
TAP	82	0	7
TAP	82	48	6
TAP	82	96	0
TAP	82	144	1
TAP	82	192	2
TAP	82	240	0
TAP	82	288	7
TAP	82	336	6
TAP	83	48	6
TAP	83	96	1
TAP	83	144	0
TAP	83	192	5
TAP	83	240	6
TAP	83	288	7
TAP	83	336	3
TAP	84	0	2
TAP	84	48	1
TAP	84	96	4
TAP	84	144	5
TAP	84	192	6
TAP	84	240	4
TAP	84	288	3
TAP	84	336	2
TAP	85	48	1
TAP	85	96	6
TAP	85	144	7
TAP	85	192	2
TAP	85	240	1
TAP	85	288	0
TAP	85	336	4
TAP	86	0	5
TAP	86	48	6
TAP	86	96	3
TAP	86	144	2
TAP	86	192	1
TAP	86	240	3
TAP	86	288	4
TAP	86	336	5
HLD	87	0	0	720
TAP	87	336	7
TAP	88	48	7
HLD	88	192	7	96
STR	88	336	7
SI_	88	336	7	96	48	3

T_REC_TAP	460
T_REC_BRK	27
T_REC_XTP	0
T_REC_HLD	22
T_REC_XHO	0
T_REC_STR	15
T_REC_BST	0
T_REC_XST	0
T_REC_TTP	0
T_REC_THO	0
T_REC_SLD	15
T_REC_ALL	539
T_NUM_TAP	475
T_NUM_BRK	27
T_NUM_HLD	22
T_NUM_SLD	15
T_NUM_ALL	539
T_JUDGE_TAP	502
T_JUDGE_HLD	87
T_JUDGE_SLD	15
T_JUDGE_ALL	604
TTM_EACHPAIRS	126
TTM_SCR_TAP	237500
TTM_SCR_BRK	70200
TTM_SCR_HLD	22000
TTM_SCR_SLD	22500
TTM_SCR_ALL	352200
TTM_SCR_S	339050
TTM_SCR_SS	349500
TTM_RAT_ACV	10077

