VERSION	0.00.00	1.03.00
FES_MODE	0
BPM_DEF	200.000	200.000	200.000	200.000
MET_DEF	4	4
RESOLUTION	384
CLK_DEF	384
COMPATIBLE_CODE	MA2

BPM	0	0	200.000
MET	0	0	4	4

HLD	1	0	6	288
TAP	2	0	0
TAP	2	96	0
BRK	2	192	0
TAP	3	0	7
TAP	3	96	7
TAP	3	192	6
TAP	3	288	6
TAP	4	0	7
TAP	4	96	7
TAP	4	192	0
TAP	4	288	0
TAP	5	0	1
TAP	5	96	1
TAP	5	96	2
TAP	5	192	1
TAP	5	288	0
TAP	5	288	1
TAP	6	0	1
TAP	6	96	1
TAP	6	96	2
TAP	6	192	1
TAP	6	288	0
TAP	6	288	1
TAP	7	0	1
TAP	7	96	0
TAP	7	96	7
TAP	7	192	6
TAP	7	288	0
TAP	7	288	7
TAP	8	0	0
TAP	8	0	1
TAP	8	96	0
TAP	8	96	1
TAP	8	192	1
TAP	8	192	2
TAP	8	288	0
TAP	8	288	1
TAP	9	0	7
TAP	9	96	7
TAP	9	192	6
TAP	9	288	6
TAP	10	0	5
TAP	10	96	5
TAP	10	192	4
TAP	10	288	4
TAP	11	0	3
TAP	11	96	2
TAP	11	96	3
TAP	11	192	3
TAP	11	288	3
TAP	11	288	4
TAP	12	0	3
TAP	12	96	2
TAP	12	96	3
TAP	12	192	3
TAP	12	288	3
TAP	12	288	4
TAP	13	0	2
TAP	13	48	2
TAP	13	192	1
TAP	13	240	1
TAP	14	0	2
TAP	14	96	3
TAP	14	192	4
TAP	14	288	5
TAP	15	0	6
TAP	15	96	6
TAP	15	192	7
TAP	15	288	7
HLD	16	0	0	288
BRK	16	288	1
TAP	17	0	7
TAP	17	96	6
TAP	17	192	5
TAP	17	288	3
TAP	17	288	4
TAP	18	0	5
TAP	18	96	6
TAP	18	192	7
TAP	18	288	0
TAP	18	288	1
TAP	19	0	7
TAP	19	96	6
TAP	19	192	5
TAP	19	288	0
TAP	19	288	7
TAP	20	0	1
TAP	20	96	2
TAP	20	192	3
TAP	20	288	0
TAP	20	288	7
TAP	21	0	6
TAP	21	96	6
TAP	21	192	5
TAP	21	288	5
TAP	22	0	6
TAP	22	96	6
TAP	22	192	7
TAP	22	288	7
TAP	23	0	0
TAP	23	96	0
HLD	23	192	1	144
BRK	24	288	0
TAP	25	0	7
TAP	25	96	6
TAP	25	192	5
TAP	25	288	4
TAP	26	0	3
TAP	26	96	2
TAP	26	192	1
TAP	26	288	0
TAP	27	0	0
TAP	27	96	1
TAP	27	192	2
TAP	27	288	3
TAP	28	0	4
TAP	28	96	5
TAP	28	192	6
TAP	28	288	0
TAP	28	288	7
TAP	29	0	1
TAP	29	96	1
TAP	29	96	2
TAP	29	192	0
TAP	29	288	0
TAP	29	288	7
TAP	30	0	6
TAP	30	96	5
TAP	30	96	6
TAP	30	192	4
TAP	30	288	3
TAP	30	288	4
HLD	31	0	5	192
HLD	31	192	0	144
BRK	31	336	1
TAP	33	0	7
TAP	33	96	6
TAP	33	192	7
TAP	33	288	6
TAP	34	0	0
TAP	34	96	1
TAP	34	192	0
TAP	34	288	1
TAP	35	0	7
TAP	35	96	0
TAP	35	192	7
TAP	35	288	0
TAP	36	0	7
TAP	36	96	6
TAP	36	192	0
TAP	36	192	7
TAP	37	0	1
TAP	37	96	2
TAP	37	192	3
TAP	37	288	0
TAP	37	288	1
TAP	38	0	7
TAP	38	96	6
TAP	38	192	5
TAP	38	288	0
TAP	38	288	7
HLD	39	0	0	96
TAP	39	96	1
HLD	39	192	0	96
TAP	39	288	7
HLD	40	0	7	288
TAP	41	0	0
TAP	41	96	1
TAP	41	192	2
TAP	41	288	3
TAP	42	0	4
TAP	42	0	5
STR	42	96	6
SI_	42	96	6	96	96	3
STR	42	96	7
SI_	42	96	7	96	96	2
TAP	43	96	0
TAP	43	192	7
TAP	43	288	6
TAP	44	0	4
TAP	44	0	5
STR	44	96	3
SI_	44	96	3	96	96	0
STR	44	96	4
SI_	44	96	4	96	96	7
HLD	45	0	0	288
TAP	45	96	1
TAP	45	192	2
TAP	45	288	1
HLD	46	0	7	288
TAP	46	96	6
TAP	46	192	5
TAP	46	288	4
HLD	47	0	3	288
TAP	47	96	2
TAP	47	192	1
TAP	47	289	0
HLD	48	0	7	288
TAP	49	0	0
TAP	49	96	0
TAP	49	96	1
TAP	49	288	1
TAP	49	288	2
TAP	50	96	0
TAP	50	96	1
TAP	50	288	0
TAP	50	288	7
HLD	51	0	6	96
TAP	51	96	5
TAP	51	192	0
TAP	51	192	7
BRK	51	336	0
BRK	51	336	1
TAP	53	0	1
TAP	53	144	0
TAP	53	192	7
TAP	53	288	0
TAP	54	0	5
TAP	54	144	4
TAP	54	192	3
TAP	54	288	4
TAP	55	0	0
TAP	55	144	7
TAP	55	192	0
TAP	55	288	7
TAP	56	0	2
TAP	56	144	3
TAP	56	192	3
TAP	56	288	4
TAP	57	0	6
TAP	57	144	5
TAP	57	192	5
TAP	57	288	4
TAP	58	0	2
TAP	58	144	1
TAP	58	192	1
TAP	58	288	2
TAP	59	0	6
TAP	59	144	7
TAP	59	192	0
TAP	59	288	0
TAP	59	288	7
TAP	60	0	2
TAP	60	96	3
TAP	60	192	4
TAP	60	288	5
TAP	61	0	0
TAP	61	96	0
BRK	61	96	1
TAP	61	192	0
TAP	61	288	0
BRK	61	288	7
TAP	62	0	1
TAP	62	96	2
BRK	62	96	3
TAP	62	192	1
TAP	62	288	0
BRK	62	288	7
TAP	63	0	7
BRK	63	96	6
TAP	63	96	7
TAP	63	192	7
BRK	63	288	0
TAP	63	288	7
TAP	64	0	6
BRK	64	96	4
TAP	64	96	5
TAP	64	192	6
BRK	64	288	0
TAP	64	288	7
TAP	65	0	0
BRK	65	96	0
TAP	65	96	1
TAP	65	192	7
TAP	65	288	6
BRK	65	288	7
TAP	66	0	2
BRK	66	96	2
TAP	66	96	3
TAP	66	192	5
TAP	66	288	4
BRK	66	288	5
TAP	67	0	3
TAP	67	192	2
TAP	68	0	1
TAP	68	0	7
TAP	68	192	0
TAP	68	192	6
TAP	69	0	7
TAP	69	96	7
TAP	69	192	0
TAP	69	288	0
HLD	70	0	1	288
TAP	70	288	2
TAP	70	336	2
TAP	71	48	1
TAP	71	48	2
TAP	71	336	7
HLD	72	48	7	144
TAP	72	192	6
TAP	72	336	0
TAP	72	336	7
TAP	73	48	0
TAP	73	48	7
TAP	73	336	1
HLD	74	48	1	144
TAP	74	192	2
TAP	74	336	0
TAP	74	336	1
TAP	75	336	7
HLD	76	48	7	144
TAP	76	192	6
TAP	76	336	0
TAP	76	336	7
TAP	77	48	0
TAP	77	48	1
TAP	77	336	0
HLD	78	48	0	144
TAP	78	192	7
TAP	78	336	5
TAP	78	336	6
TAP	79	96	7
TAP	79	192	7
TAP	79	288	0
TAP	80	0	0
TAP	80	96	1
TAP	80	192	1
TAP	80	288	2
TAP	81	96	1
TAP	81	192	1
TAP	81	288	0
TAP	82	0	0
TAP	82	0	7
TAP	82	96	6
TAP	82	96	7
TAP	82	192	0
TAP	82	192	7
TAP	82	288	6
TAP	82	288	7
TAP	83	0	0
TAP	83	96	1
TAP	83	192	2
TAP	83	288	3
TAP	84	0	4
TAP	84	96	5
TAP	84	192	6
TAP	84	288	7
TAP	85	0	7
TAP	85	96	6
TAP	85	192	5
TAP	85	288	4
TAP	86	0	3
TAP	86	96	2
TAP	86	192	1
TAP	86	288	0
HLD	87	0	7	336
TAP	87	336	0
HLD	88	48	0	144
TAP	88	192	1
TAP	88	336	0
TAP	88	336	7

T_REC_TAP	316
T_REC_BRK	18
T_REC_XTP	0
T_REC_HLD	20
T_REC_XHO	0
T_REC_STR	4
T_REC_BST	0
T_REC_XST	0
T_REC_TTP	0
T_REC_THO	0
T_REC_SLD	4
T_REC_ALL	362
T_NUM_TAP	320
T_NUM_BRK	18
T_NUM_HLD	20
T_NUM_SLD	4
T_NUM_ALL	362
T_JUDGE_TAP	338
T_JUDGE_HLD	86
T_JUDGE_SLD	4
T_JUDGE_ALL	428
TTM_EACHPAIRS	63
TTM_SCR_TAP	160000
TTM_SCR_BRK	46800
TTM_SCR_HLD	20000
TTM_SCR_SLD	6000
TTM_SCR_ALL	232800
TTM_SCR_S	224100
TTM_SCR_SS	231000
TTM_RAT_ACV	10077

