VERSION	0.00.00	1.03.00
FES_MODE	0
BPM_DEF	200.000	200.000	200.000	200.000
MET_DEF	4	4
RESOLUTION	384
CLK_DEF	384
COMPATIBLE_CODE	MA2

BPM	0	0	200.000
MET	0	0	4	4

TAP	3	0	1
TAP	3	96	1
TAP	3	192	1
TAP	4	0	2
TAP	4	96	2
TAP	4	192	2
TAP	5	0	1
TAP	5	96	1
TAP	5	192	0
TAP	5	288	0
TAP	6	0	7
TAP	6	96	7
TAP	6	192	6
TAP	6	288	6
HLD	7	0	5	96
HLD	7	192	4	96
TAP	8	0	5
TAP	8	96	5
BRK	8	192	5
TAP	9	0	3
TAP	9	96	3
TAP	9	192	3
TAP	10	0	4
TAP	10	96	4
TAP	10	192	4
TAP	11	0	3
TAP	11	96	3
TAP	11	192	2
TAP	11	288	2
TAP	12	0	1
TAP	12	96	1
TAP	12	192	0
TAP	12	288	0
STR	13	0	7
SI_	13	0	7	96	192	3
STR	15	0	0
SI_	15	0	0	96	192	4
TAP	17	0	7
TAP	17	96	7
TAP	17	192	7
TAP	18	0	0
TAP	18	96	0
TAP	18	192	0
TAP	19	0	7
TAP	19	96	7
TAP	19	192	7
TAP	20	0	0
TAP	20	96	0
TAP	20	192	1
TAP	20	288	1
TAP	21	0	2
TAP	21	96	2
TAP	21	192	2
TAP	22	0	3
TAP	22	96	3
TAP	22	192	3
TAP	23	0	2
TAP	23	96	2
TAP	23	192	1
TAP	23	288	1
BRK	24	0	0
TAP	25	0	7
TAP	25	96	7
TAP	25	192	7
TAP	26	0	6
TAP	26	96	6
TAP	26	192	6
TAP	27	0	7
TAP	27	96	7
TAP	27	192	7
TAP	28	0	0
TAP	28	96	0
TAP	28	192	1
TAP	28	288	1
TAP	29	0	0
TAP	29	96	0
TAP	29	192	0
TAP	30	0	7
TAP	30	96	7
TAP	30	192	7
STR	31	0	6
SI_	31	0	6	96	192	1
TAP	33	0	2
TAP	33	96	2
TAP	33	192	2
TAP	34	0	3
TAP	34	96	3
TAP	34	192	3
TAP	35	0	2
TAP	35	96	2
TAP	35	192	3
TAP	35	288	3
TAP	36	0	2
TAP	36	96	2
TAP	36	192	1
TAP	36	288	1
TAP	37	0	0
TAP	37	96	0
TAP	37	192	0
TAP	38	0	7
TAP	38	96	7
TAP	38	192	7
TAP	39	0	0
TAP	39	96	0
TAP	39	192	7
TAP	39	288	7
HLD	40	0	6	288
STR	41	0	6
SI_	41	0	6	96	192	2
TAP	42	192	1
BRK	42	288	1
STR	43	0	0
SI_	43	0	0	96	192	3
TAP	44	192	7
BRK	44	288	7
HLD	45	0	6	288
HLD	46	0	5	288
HLD	47	0	6	288
BRK	48	0	6
TAP	49	96	1
TAP	49	288	1
TAP	50	96	2
TAP	50	288	2
HLD	51	0	3	336
HLD	52	336	2	384
HLD	55	0	1	384
STR	57	0	2
SI_	57	0	2	96	192	6
STR	59	0	4
SI_	59	0	4	96	192	0
TAP	61	0	7
TAP	61	96	7
BRK	61	192	7
TAP	62	0	0
TAP	62	96	0
BRK	62	192	0
TAP	63	0	6
TAP	63	96	6
BRK	63	192	6
TAP	64	0	1
TAP	64	96	1
BRK	64	192	1
TAP	65	0	6
TAP	65	96	6
TAP	65	192	2
TAP	65	288	2
TAP	66	0	4
TAP	66	96	4
TAP	66	192	3
TAP	66	288	3
TAP	67	0	4
TAP	67	96	4
TAP	67	192	2
TAP	67	288	2
TAP	68	0	6
TAP	68	96	6
TAP	68	192	0
TAP	68	288	0
STR	69	0	7
SI_	69	0	7	96	192	4
TAP	70	336	0
TAP	71	48	0
TAP	71	336	1
TAP	72	48	1
TAP	72	336	0
TAP	73	48	0
TAP	73	336	7
TAP	74	48	7
HLD	74	336	6	240
TAP	75	336	6
TAP	76	48	6
TAP	76	336	7
TAP	77	48	7
TAP	77	336	0
TAP	78	48	0
TAP	79	0	7
TAP	79	96	7
TAP	79	192	6
TAP	80	0	7
TAP	80	96	7
TAP	80	192	0
TAP	81	0	1
TAP	81	96	1
TAP	81	192	2
TAP	82	0	1
TAP	82	96	1
TAP	82	192	0
BRK	82	288	0
TAP	83	0	7
TAP	83	96	7
TAP	83	192	6
TAP	83	288	6
TAP	84	0	5
TAP	84	96	5
TAP	84	192	4
TAP	84	288	4
TAP	85	0	5
TAP	85	96	5
TAP	85	192	6
TAP	85	288	6
TAP	86	0	7
TAP	86	96	7
TAP	86	192	0
TAP	86	288	0
HLD	87	0	1	576
BRK	88	336	1

T_REC_TAP	168
T_REC_BRK	11
T_REC_XTP	0
T_REC_HLD	11
T_REC_XHO	0
T_REC_STR	8
T_REC_BST	0
T_REC_XST	0
T_REC_TTP	0
T_REC_THO	0
T_REC_SLD	8
T_REC_ALL	206
T_NUM_TAP	176
T_NUM_BRK	11
T_NUM_HLD	11
T_NUM_SLD	8
T_NUM_ALL	206
T_JUDGE_TAP	187
T_JUDGE_HLD	68
T_JUDGE_SLD	8
T_JUDGE_ALL	263
TTM_EACHPAIRS	0
TTM_SCR_TAP	88000
TTM_SCR_BRK	28600
TTM_SCR_HLD	11000
TTM_SCR_SLD	12000
TTM_SCR_ALL	139600
TTM_SCR_S	134350
TTM_SCR_SS	138500
TTM_RAT_ACV	10079

