VERSION	0.00.00	1.03.00
FES_MODE	0
BPM_DEF	144.000	144.000	144.000	144.000
MET_DEF	4	4
RESOLUTION	384
CLK_DEF	384
COMPATIBLE_CODE	MA2

BPM	0	0	144.000
MET	0	0	4	4

BRK	1	0	1
TAP	1	72	5
TAP	1	96	4
TAP	1	192	1
TAP	1	192	5
TAP	1	240	4
TAP	1	288	3
TAP	1	336	2
TAP	1	336	6
TAP	2	48	5
TAP	2	96	2
TAP	2	120	3
TAP	2	144	2
TAP	2	192	5
TAP	2	216	4
TAP	2	240	5
TAP	2	288	3
TAP	2	288	4
TAP	3	0	2
TAP	3	0	5
TAP	3	72	2
TAP	3	96	3
TAP	3	120	2
TAP	3	192	4
TAP	3	192	5
STR	3	240	3
SCL	3	240	3	96	240	4
STR	3	240	4
SUL	3	240	4	96	240	3
TAP	4	288	1
BRK	4	336	7
HLD	5	0	0	48
BRK	5	0	7
HLD	5	96	0	48
TAP	5	96	7
HLD	5	192	0	48
TAP	5	192	6
TAP	5	240	5
HLD	5	288	0	48
TAP	5	336	5
HLD	6	0	0	48
TAP	6	0	4
TAP	6	48	3
TAP	6	96	4
HLD	6	96	7	48
TAP	6	144	5
HLD	6	192	0	48
TAP	6	192	4
TAP	6	240	3
TAP	6	288	4
HLD	6	288	7	48
TAP	6	336	5
TAP	7	0	1
TAP	7	0	6
TAP	7	48	0
TAP	7	72	7
TAP	7	96	0
TAP	7	120	7
TAP	7	144	0
TAP	7	192	4
TAP	7	192	5
TAP	7	240	2
TAP	7	240	3
TAP	7	288	0
TAP	7	288	7
BRK	7	336	1
BRK	7	336	6
TAP	8	48	3
TAP	8	48	4
TAP	8	96	3
TAP	8	96	4
TAP	8	192	1
TAP	8	216	6
TAP	8	240	0
TAP	8	264	7
TAP	8	288	3
TAP	8	312	4
TAP	8	336	2
TAP	8	360	5
BST	9	0	0
SI_	9	0	0	96	48	4
TAP	9	48	6
STR	9	96	4
SI_	9	96	4	96	48	0
STR	9	192	0
SI_	9	192	0	96	48	4
TAP	9	240	6
STR	9	288	4
SI_	9	288	4	96	48	0
STR	10	0	0
SI_	10	0	0	96	48	4
TAP	10	48	6
STR	10	96	4
SCR	10	96	4	96	96	2
HLD	10	192	7	96
TAP	11	0	2
TAP	11	48	0
TAP	11	96	1
TAP	11	96	7
TAP	11	144	5
TAP	11	168	4
TAP	11	192	5
TAP	11	240	7
TAP	11	288	0
TAP	11	288	6
TAP	11	336	2
TAP	11	360	3
TAP	12	0	2
TAP	12	48	0
TAP	12	96	1
TAP	12	96	7
TAP	12	144	5
TAP	12	168	4
TAP	12	192	5
TAP	12	240	6
TAP	12	240	7
TAP	12	288	0
TAP	12	288	7
TAP	12	336	0
TAP	12	336	1
STR	13	0	7
SI_	13	0	7	96	48	3
TAP	13	48	1
STR	13	96	3
SI_	13	96	3	96	48	7
STR	13	192	7
SI_	13	192	7	96	48	3
TAP	13	240	1
STR	13	288	3
SI_	13	288	3	96	48	7
STR	14	0	7
SI_	14	0	7	96	48	3
TAP	14	48	1
STR	14	96	3
SCL	14	96	3	96	96	5
HLD	14	192	0	96
TAP	15	0	6
TAP	15	48	7
TAP	15	96	0
TAP	15	96	5
TAP	15	144	2
TAP	15	168	3
TAP	15	192	2
TAP	15	240	0
TAP	15	288	2
TAP	15	288	7
TAP	15	336	5
TAP	15	360	4
HLD	16	0	5	144
TAP	16	48	7
TAP	16	96	0
TAP	16	144	1
TAP	16	192	3
TAP	16	192	4
TAP	16	240	2
TAP	16	288	5
BRK	16	336	6
BRK	16	336	7
BST	17	0	0
SI_	17	0	0	96	48	4
TAP	17	48	6
STR	17	96	4
SI_	17	96	4	96	48	0
TAP	17	144	6
STR	17	192	0
SI_	17	192	0	96	48	4
TAP	17	240	6
STR	17	288	4
SI_	17	288	4	96	48	0
TAP	17	336	6
STR	18	0	0
SI_	18	0	0	96	48	4
TAP	18	48	6
STR	18	96	4
SCR	18	96	4	96	96	2
TAP	18	144	7
HLD	18	192	7	96
TAP	19	0	2
TAP	19	48	0
TAP	19	96	1
TAP	19	96	7
TAP	19	144	6
TAP	19	168	4
TAP	19	192	5
TAP	19	240	7
TAP	19	288	0
TAP	19	288	6
TAP	19	336	1
TAP	19	360	3
TAP	20	0	2
TAP	20	48	0
TAP	20	96	1
TAP	20	96	7
TAP	20	144	6
TAP	20	168	4
TAP	20	192	5
TAP	20	240	6
TAP	20	240	7
TAP	20	288	0
TAP	20	288	7
TAP	20	336	0
TAP	20	336	1
STR	21	0	7
SI_	21	0	7	96	48	3
TAP	21	48	1
STR	21	96	3
SI_	21	96	3	96	48	7
TAP	21	144	1
STR	21	192	7
SI_	21	192	7	96	48	3
TAP	21	240	1
STR	21	288	3
SI_	21	288	3	96	48	7
TAP	21	336	1
STR	22	0	7
SI_	22	0	7	96	48	3
TAP	22	48	1
STR	22	96	3
SCL	22	96	3	96	96	5
TAP	22	144	0
HLD	22	192	0	96
TAP	23	0	5
TAP	23	48	7
TAP	23	96	0
TAP	23	96	6
TAP	23	144	1
TAP	23	168	3
TAP	23	192	2
TAP	23	240	0
TAP	23	288	1
TAP	23	288	7
TAP	23	336	6
TAP	23	360	4
TAP	24	0	5
TAP	24	48	7
TAP	24	96	0
TAP	24	96	6
TAP	24	144	1
TAP	24	168	3
TAP	24	192	2
TAP	24	240	0
TAP	24	240	7
STR	24	288	2
SCL	24	288	2	96	192	4
STR	24	288	5
SCR	24	288	5	96	192	3
TAP	26	0	2
TAP	26	96	2
TAP	26	96	3
TAP	26	144	4
TAP	26	192	5
TAP	26	288	4
TAP	26	288	5
TAP	26	336	3
HLD	27	0	2	96
TAP	27	0	3
TAP	27	96	1
TAP	27	144	2
TAP	27	192	3
TAP	27	288	1
TAP	27	288	3
TAP	27	336	4
TAP	28	0	4
HLD	28	0	5	96
TAP	28	96	6
TAP	28	144	5
TAP	28	192	4
TAP	28	240	4
TAP	28	288	3
STR	28	288	4
SI_	28	288	4	96	96	1
TAP	28	336	3
STR	29	96	3
SI_	29	96	3	96	96	6
STR	29	288	5
SI_	29	288	5	96	96	0
STR	30	96	2
SI_	30	96	2	96	96	7
TAP	30	288	6
HLD	31	0	6	96
TAP	31	0	7
TAP	31	96	5
TAP	31	144	6
TAP	31	192	7
TAP	31	288	6
TAP	31	288	7
STR	32	0	0
SUL	32	0	0	96	96	3
STR	32	0	6
SI_	32	0	6	96	96	3
BRK	32	288	3
HLD	33	0	5	96
TAP	33	48	3
HLD	33	96	4	96
TAP	33	144	6
HLD	33	192	3	96
TAP	33	240	1
HLD	33	288	2	96
TAP	33	336	0
HLD	34	0	3	96
TAP	34	48	1
HLD	34	96	4	96
TAP	34	144	6
HLD	34	192	5	96
TAP	34	240	7
TAP	34	288	4
TAP	34	336	5
TAP	34	336	7
HLD	35	0	6	96
TAP	35	48	0
HLD	35	96	7	96
TAP	35	144	5
HLD	35	192	0	96
TAP	35	240	2
HLD	35	288	1	96
TAP	35	336	3
HLD	36	0	0	96
TAP	36	48	2
HLD	36	96	7	96
TAP	36	144	5
TAP	36	192	6
TAP	36	240	6
TAP	36	288	5
TAP	36	288	7
TAP	36	336	0
STR	37	0	1
SI_	37	0	1	96	96	5
TAP	37	48	7
TAP	37	96	4
STR	37	192	6
SI_	37	192	6	96	96	2
TAP	37	240	0
TAP	37	288	3
STR	38	0	1
SI_	38	0	1	96	96	5
TAP	38	48	7
TAP	38	96	3
STR	38	192	6
SI_	38	192	6	96	96	2
TAP	38	240	0
TAP	38	288	4
TAP	38	336	0
BRK	39	0	6
TAP	40	0	2
TAP	40	0	3
TAP	40	48	2
TAP	40	96	4
TAP	40	96	5
TAP	40	144	5
TAP	40	192	0
TAP	40	216	7
TAP	40	240	0
TAP	40	264	7
TAP	40	288	0
TAP	40	300	1
TAP	40	312	2
TAP	40	324	3
TAP	40	336	4
TAP	40	348	5
TAP	40	360	6
TAP	40	372	7
BRK	41	0	0
STR	42	0	0
SI_	42	0	0	96	48	4
TAP	42	96	0
STR	42	96	7
SI_	42	96	7	96	48	3
STR	42	192	1
SI_	42	192	1	96	48	5
TAP	42	192	7
TAP	42	288	1
STR	42	288	6
SI_	42	288	6	96	48	2
STR	43	0	0
SI_	43	0	0	96	48	5
TAP	43	0	6
TAP	43	96	0
STR	43	96	6
SCR	43	96	6	96	96	4
HLD	43	192	2	96
TAP	44	0	6
TAP	44	48	7
TAP	44	96	0
TAP	44	96	5
TAP	44	144	2
TAP	44	168	3
TAP	44	192	1
TAP	44	240	0
TAP	44	288	2
TAP	44	288	7
TAP	44	336	5
TAP	44	360	4
TAP	45	0	6
TAP	45	48	7
TAP	45	96	0
TAP	45	96	5
TAP	45	144	2
TAP	45	168	3
TAP	45	192	1
TAP	45	240	0
TAP	45	240	1
TAP	45	288	0
TAP	45	288	7
TAP	45	336	6
TAP	45	336	7
STR	46	0	7
SI_	46	0	7	96	48	3
STR	46	96	0
SI_	46	96	0	96	48	4
TAP	46	96	7
TAP	46	192	0
STR	46	192	6
SI_	46	192	6	96	48	2
STR	46	288	1
SI_	46	288	1	96	48	5
TAP	46	288	6
TAP	47	0	1
STR	47	0	7
SI_	47	0	7	96	48	2
STR	47	96	1
SCL	47	96	1	96	96	3
TAP	47	96	7
HLD	47	192	5	96
TAP	48	0	1
TAP	48	48	0
TAP	48	96	2
TAP	48	96	7
TAP	48	144	5
TAP	48	168	4
TAP	48	192	6
TAP	48	240	7
TAP	48	288	0
TAP	48	288	5
TAP	48	336	2
TAP	48	360	3
TAP	49	0	1
TAP	49	48	0
TAP	49	96	2
TAP	49	96	7
TAP	49	144	5
TAP	49	168	4
TAP	49	192	6
TAP	49	240	6
TAP	49	240	7
TAP	49	288	0
TAP	49	288	1
TAP	49	336	2
TAP	49	336	5
STR	50	0	6
SI_	50	0	6	96	48	3
BRK	50	96	6
STR	50	96	7
SI_	50	96	7	96	48	2
STR	50	192	5
SI_	50	192	5	96	48	0
BRK	50	192	7
STR	50	288	4
SI_	50	288	4	96	48	1
BRK	50	288	5
BRK	51	0	4
STR	51	0	6
SI_	51	0	6	96	48	3
STR	51	96	2
SCL	51	96	2	96	96	4
BRK	51	96	6
BRK	51	192	7
TAP	52	0	6
TAP	52	48	6
TAP	52	48	7
TAP	52	96	0
TAP	52	96	1
TAP	52	144	2
TAP	52	168	3
TAP	52	192	2
TAP	52	240	0
TAP	52	240	1
TAP	52	288	6
TAP	52	288	7
TAP	52	336	5
TAP	52	360	4
TAP	53	0	5
TAP	53	48	6
TAP	53	48	7
TAP	53	96	0
TAP	53	96	1
TAP	53	144	2
TAP	53	168	3
TAP	53	192	2
TAP	53	240	0
TAP	53	240	1
TAP	53	288	6
TAP	53	288	7
TAP	53	336	3
TAP	53	336	4
STR	54	0	1
SI_	54	0	1	96	48	4
STR	54	96	0
SI_	54	96	0	96	48	5
BRK	54	96	1
BRK	54	192	0
STR	54	192	2
SI_	54	192	2	96	48	7
BRK	54	288	2
STR	54	288	3
SI_	54	288	3	96	48	6
STR	55	0	1
SI_	55	0	1	96	48	4
BRK	55	0	3
BRK	55	96	1
STR	55	96	5
SCR	55	96	5	96	96	3
BRK	55	192	0
TAP	56	0	1
TAP	56	48	0
TAP	56	48	1
TAP	56	96	6
TAP	56	96	7
TAP	56	144	5
TAP	56	168	4
TAP	56	192	5
TAP	56	240	6
TAP	56	240	7
TAP	56	288	0
TAP	56	288	1
TAP	56	336	2
TAP	56	360	3
TAP	57	0	2
TAP	57	48	0
TAP	57	48	1
TAP	57	96	6
TAP	57	96	7
TAP	57	144	5
TAP	57	168	4
TAP	57	192	5
TAP	57	240	6
TAP	57	240	7
STR	57	288	0
SCL	57	288	0	96	192	3
TAP	57	288	1
TAP	57	336	0
TAP	57	336	1
BRK	58	0	2
STR	58	288	2
SCL	58	288	2	96	192	4
TAP	59	288	2
HLD	60	0	2	144
HLD	60	0	3	144
TAP	60	240	2
TAP	60	240	4
HLD	60	336	2	144
HLD	60	336	5	144
TAP	61	192	1
TAP	61	216	6
TAP	61	240	0
TAP	61	264	7
TAP	61	288	3
TAP	61	312	4
TAP	61	336	2
TAP	61	360	5
HLD	62	0	0	48
HLD	62	96	0	48
TAP	62	96	7
HLD	62	192	0	48
TAP	62	192	6
TAP	62	240	5
HLD	62	288	0	48
TAP	62	336	5
HLD	63	0	0	48
TAP	63	0	4
TAP	63	48	3
TAP	63	96	4
HLD	63	96	7	48
TAP	63	144	5
HLD	63	192	0	48
TAP	63	192	4
TAP	63	240	3
TAP	63	288	4
HLD	63	288	7	48
TAP	63	336	5
TAP	64	0	1
TAP	64	0	6
TAP	64	48	2
TAP	64	72	3
TAP	64	120	5
TAP	64	144	4
TAP	64	192	2
TAP	64	192	6
TAP	64	240	3
TAP	64	288	4
BRK	64	336	1
BRK	64	336	5
TAP	65	0	1
TAP	65	24	0
TAP	65	48	1
TAP	65	96	6
TAP	65	120	7
TAP	65	144	6
TAP	65	192	0
TAP	65	216	7
TAP	65	240	0
TAP	65	264	7
TAP	65	288	0
TAP	65	300	1
TAP	65	312	2
TAP	65	324	3
TAP	65	336	4
TAP	65	348	5
TAP	65	360	6
TAP	65	372	7
BRK	66	0	0
BRK	66	0	4

T_REC_TAP	413
T_REC_BRK	27
T_REC_XTP	0
T_REC_HLD	43
T_REC_XHO	0
T_REC_STR	62
T_REC_BST	2
T_REC_XST	0
T_REC_TTP	0
T_REC_THO	0
T_REC_SLD	64
T_REC_ALL	611
T_NUM_TAP	475
T_NUM_BRK	29
T_NUM_HLD	43
T_NUM_SLD	64
T_NUM_ALL	611
T_JUDGE_TAP	504
T_JUDGE_HLD	75
T_JUDGE_SLD	64
T_JUDGE_ALL	643
TTM_EACHPAIRS	117
TTM_SCR_TAP	237500
TTM_SCR_BRK	75400
TTM_SCR_HLD	43000
TTM_SCR_SLD	96000
TTM_SCR_ALL	451900
TTM_SCR_S	435550
TTM_SCR_SS	449000
TTM_RAT_ACV	10064

