VERSION	0.00.00	1.03.00
FES_MODE	0
BPM_DEF	144.000	144.000	144.000	144.000
MET_DEF	4	4
RESOLUTION	384
CLK_DEF	384
COMPATIBLE_CODE	MA2

BPM	0	0	144.000
MET	0	0	4	4

TAP	1	0	1
TAP	1	72	6
TAP	1	96	5
TAP	1	192	4
TAP	1	192	6
TAP	1	264	3
TAP	1	264	5
TAP	1	336	2
TAP	1	336	4
TAP	2	96	0
TAP	2	120	7
TAP	2	144	0
TAP	2	192	4
TAP	2	216	3
TAP	2	240	4
TAP	2	288	1
TAP	2	288	6
TAP	3	0	6
TAP	3	72	1
TAP	3	96	2
TAP	3	120	1
TAP	3	192	0
TAP	3	240	7
TAP	3	288	6
HLD	3	336	7	240
HLD	4	192	1	96
TAP	4	288	2
TAP	5	0	5
TAP	5	96	7
TAP	5	192	3
TAP	5	240	2
TAP	5	288	1
HLD	5	336	7	96
TAP	6	48	1
TAP	6	96	2
TAP	6	120	0
TAP	6	144	2
TAP	6	192	5
TAP	6	216	7
TAP	6	240	5
TAP	6	288	0
TAP	6	288	7
TAP	7	0	5
TAP	7	72	3
TAP	7	120	1
TAP	7	144	2
TAP	7	192	0
TAP	7	240	7
TAP	7	288	6
HLD	7	337	0	240
TAP	8	192	7
TAP	8	240	5
TAP	8	288	3
BRK	8	336	1
TAP	9	0	2
STR	9	48	7
SI_	9	48	7	96	48	4
TAP	9	96	2
TAP	9	192	2
STR	9	240	4
SI_	9	240	4	96	48	7
TAP	9	288	2
TAP	10	0	2
STR	10	48	6
SI_	10	48	6	96	48	1
TAP	10	96	2
TAP	10	192	2
STR	10	240	1
SI_	10	240	1	96	48	6
TAP	10	288	2
TAP	11	0	2
STR	11	48	7
SI_	11	48	7	96	48	4
TAP	11	96	2
TAP	11	192	2
STR	11	240	4
SI_	11	240	4	96	48	7
TAP	11	288	2
TAP	12	0	1
TAP	12	48	2
TAP	12	96	1
TAP	12	144	2
TAP	12	192	6
TAP	12	240	5
TAP	12	288	6
TAP	12	336	5
TAP	13	0	5
STR	13	48	0
SI_	13	48	0	96	48	3
TAP	13	96	5
TAP	13	192	5
STR	13	240	3
SI_	13	240	3	96	48	0
TAP	13	288	5
TAP	14	0	5
STR	14	48	1
SI_	14	48	1	96	48	6
TAP	14	96	5
TAP	14	192	5
STR	14	240	6
SI_	14	240	6	96	48	1
TAP	14	288	5
TAP	15	0	5
STR	15	48	0
SI_	15	48	0	96	48	3
TAP	15	96	5
TAP	15	192	5
STR	15	240	3
SI_	15	240	3	96	48	0
TAP	15	288	5
TAP	16	0	5
TAP	16	48	0
TAP	16	96	5
TAP	16	144	7
TAP	16	192	6
TAP	16	216	5
TAP	16	240	4
TAP	16	264	3
TAP	16	288	2
TAP	16	312	1
TAP	16	336	0
TAP	16	360	7
HLD	17	0	1	96
TAP	17	0	2
TAP	17	48	3
TAP	17	96	4
TAP	17	144	4
HLD	17	144	5	96
TAP	17	192	3
TAP	17	240	2
TAP	17	288	0
HLD	17	288	1	240
TAP	17	336	7
TAP	18	0	6
TAP	18	48	5
TAP	18	96	4
TAP	18	144	3
STR	18	192	2
SCR	18	192	2	96	48	5
STR	18	240	5
SCR	18	240	5	96	48	0
HLD	19	0	1	96
TAP	19	96	2
HLD	19	144	0	96
TAP	19	240	7
HLD	19	288	5	96
TAP	20	0	4
HLD	20	48	7	96
TAP	20	144	6
STR	20	192	0
SCL	20	192	0	96	48	5
STR	20	240	5
SCL	20	240	5	96	48	2
HLD	21	0	6	96
TAP	21	48	2
TAP	21	96	4
HLD	21	144	1	96
TAP	21	144	7
TAP	21	192	5
TAP	21	240	3
TAP	21	288	2
HLD	21	288	5	240
TAP	21	336	3
TAP	22	0	4
TAP	22	48	3
TAP	22	96	2
TAP	22	144	1
STR	22	192	0
SI_	22	192	0	96	48	3
STR	22	240	3
SCL	22	240	3	96	48	0
TAP	23	0	4
TAP	23	96	6
HLD	23	144	5	144
TAP	23	240	0
HLD	23	288	3	95
HLD	24	0	4	144
HLD	24	144	2	144
TAP	24	288	3
TAP	25	0	2
TAP	25	96	2
TAP	25	144	7
HLD	25	192	2	96
TAP	25	192	6
TAP	25	240	5
TAP	25	288	6
TAP	25	336	7
TAP	26	0	2
TAP	26	0	6
TAP	26	96	2
TAP	26	96	5
TAP	26	144	4
HLD	26	192	2	96
TAP	26	240	3
TAP	26	288	4
TAP	26	336	5
TAP	27	0	2
TAP	27	48	4
TAP	27	96	2
TAP	27	96	5
TAP	27	144	6
HLD	27	192	2	96
TAP	27	288	3
TAP	27	336	7
TAP	28	0	0
TAP	28	0	2
TAP	28	48	1
TAP	28	96	2
TAP	28	96	7
HLD	28	144	6	144
HLD	28	192	2	96
TAP	29	0	5
TAP	29	96	5
TAP	29	144	0
TAP	29	192	1
HLD	29	192	5	96
TAP	29	240	2
TAP	29	336	0
TAP	30	0	5
TAP	30	48	1
TAP	30	96	5
TAP	30	144	2
HLD	30	192	5	96
TAP	30	240	2
TAP	30	288	1
TAP	30	336	0
TAP	31	0	5
TAP	31	48	1
TAP	31	96	2
TAP	31	96	5
TAP	31	144	3
HLD	31	192	5	96
TAP	31	288	4
TAP	31	336	4
TAP	32	0	3
TAP	32	0	5
TAP	32	48	2
TAP	32	96	1
TAP	32	96	5
TAP	32	144	0
HLD	32	192	5	96
TAP	32	192	7
HLD	32	240	7	144
TAP	33	0	2
TAP	33	48	1
HLD	33	96	2	96
TAP	33	144	0
TAP	33	192	3
TAP	33	240	7
HLD	33	288	3	96
TAP	33	336	6
TAP	34	0	4
TAP	34	48	6
HLD	34	96	4	96
TAP	34	144	7
TAP	34	192	5
TAP	34	240	0
HLD	34	288	5	96
TAP	34	336	1
TAP	35	0	4
TAP	35	48	2
HLD	35	96	4	96
TAP	35	144	1
TAP	35	192	3
TAP	35	240	0
HLD	35	288	3	96
TAP	35	336	7
TAP	36	0	2
TAP	36	48	6
HLD	36	96	2	96
TAP	36	144	5
STR	36	192	1
SI_	36	192	1	96	48	6
TAP	36	240	4
STR	37	0	1
SCL	37	0	1	96	96	6
STR	37	192	5
SI_	37	192	5	96	96	2
STR	38	0	7
SI_	38	0	7	96	96	4
STR	38	192	2
SCR	38	192	2	96	96	5
HLD	39	0	4	288
HLD	40	0	3	336
TAP	40	48	4
TAP	40	96	5
TAP	40	144	6
TAP	40	192	7
TAP	40	240	0
TAP	40	288	1
TAP	40	336	2
BRK	41	0	0
STR	41	0	7
SCR	41	0	7	96	192	2
HLD	42	0	0	96
HLD	42	96	7	96
HLD	42	192	1	192
HLD	42	288	2	192
HLD	43	96	7	96
HLD	43	192	6	192
HLD	43	288	5	192
TAP	44	48	2
TAP	44	96	4
TAP	44	144	6
TAP	44	192	1
TAP	44	240	3
TAP	44	288	5
TAP	44	336	7
TAP	45	0	6
TAP	45	48	4
TAP	45	96	2
TAP	45	144	0
STR	45	192	2
SCL	45	192	2	96	48	7
STR	45	240	7
SCL	45	240	7	96	48	4
TAP	46	0	3
TAP	46	48	2
HLD	46	96	0	96
TAP	46	144	7
TAP	46	192	6
HLD	46	240	5	96
TAP	46	288	4
TAP	46	336	0
HLD	47	0	1	96
TAP	47	48	2
TAP	47	96	3
HLD	47	144	6	96
TAP	47	192	5
TAP	47	240	4
TAP	47	288	3
TAP	47	336	2
HLD	48	0	1	96
TAP	48	48	2
HLD	48	96	2	96
TAP	48	144	3
HLD	48	192	6	96
TAP	48	240	5
HLD	48	288	5	96
TAP	48	336	4
TAP	49	0	2
TAP	49	48	3
TAP	49	96	4
TAP	49	144	5
STR	49	192	6
SCR	49	192	6	96	48	1
STR	49	240	1
SCR	49	240	1	96	48	4
HLD	50	0	5	96
TAP	50	96	3
TAP	50	144	3
HLD	50	144	5	96
TAP	50	240	2
TAP	50	288	2
HLD	50	288	5	144
TAP	51	48	1
TAP	51	96	0
TAP	51	144	7
TAP	51	192	6
TAP	51	240	5
TAP	51	288	1
TAP	51	288	6
STR	52	0	2
SI_	52	0	2	96	48	5
HLD	52	48	2	96
STR	52	192	6
SCR	52	192	6	96	48	1
HLD	52	240	6	96
STR	53	0	7
SI_	53	0	7	96	48	4
HLD	53	48	7	96
STR	53	192	0
SI_	53	192	0	96	48	3
HLD	53	240	0	96
HLD	54	0	2	96
TAP	54	0	3
TAP	54	96	4
HLD	54	144	2	96
TAP	54	144	4
TAP	54	240	5
HLD	54	288	2	144
TAP	54	288	6
TAP	55	48	7
TAP	55	96	0
TAP	55	144	1
TAP	55	192	2
TAP	55	240	3
TAP	55	288	0
TAP	55	288	7
STR	56	0	0
SI_	56	0	0	96	48	4
HLD	56	48	1	96
STR	56	192	6
SCR	56	192	6	96	48	1
HLD	56	240	6	96
STR	57	0	7
SI_	57	0	7	96	48	3
HLD	57	48	2	96
STR	57	192	0
SI_	57	192	0	96	48	4
HLD	57	240	0	96
HLD	58	0	1	672
HLD	59	0	2	576
HLD	60	0	4	384
HLD	61	0	3	384
HLD	62	0	5	384
TAP	62	96	0
TAP	62	192	2
TAP	62	288	2
HLD	63	0	7	384
TAP	63	96	4
TAP	63	192	6
TAP	63	288	6
TAP	64	0	0
TAP	64	96	7
TAP	64	192	3
TAP	64	288	4
HLD	65	0	4	192
TAP	65	96	5
TAP	65	192	0
TAP	65	216	1
TAP	65	240	2
TAP	65	264	3
TAP	65	288	4
TAP	65	312	5
TAP	65	336	6
TAP	65	360	7
BRK	66	0	0

T_REC_TAP	280
T_REC_BRK	3
T_REC_XTP	0
T_REC_HLD	73
T_REC_XHO	0
T_REC_STR	36
T_REC_BST	0
T_REC_XST	0
T_REC_TTP	0
T_REC_THO	0
T_REC_SLD	36
T_REC_ALL	428
T_NUM_TAP	316
T_NUM_BRK	3
T_NUM_HLD	73
T_NUM_SLD	36
T_NUM_ALL	428
T_JUDGE_TAP	319
T_JUDGE_HLD	230
T_JUDGE_SLD	36
T_JUDGE_ALL	585
TTM_EACHPAIRS	29
TTM_SCR_TAP	158000
TTM_SCR_BRK	7800
TTM_SCR_HLD	73000
TTM_SCR_SLD	54000
TTM_SCR_ALL	292800
TTM_SCR_S	283750
TTM_SCR_SS	292500
TTM_RAT_ACV	10010

