VERSION	0.00.00	1.03.00
FES_MODE	0
BPM_DEF	144.000	144.000	144.000	144.000
MET_DEF	4	4
RESOLUTION	384
CLK_DEF	384
COMPATIBLE_CODE	MA2

BPM	0	0	144.000
MET	0	0	4	4

TAP	1	96	3
TAP	1	192	2
STR	1	288	1
SI_	1	288	1	96	192	4
HLD	1	336	1	240
TAP	3	96	7
TAP	3	192	6
STR	3	288	5
SI_	3	288	5	96	192	0
HLD	3	336	5	240
TAP	5	0	0
TAP	5	0	6
TAP	5	96	0
TAP	5	96	2
TAP	5	192	5
TAP	5	192	7
TAP	5	288	1
TAP	5	288	7
TAP	6	0	0
TAP	6	0	5
TAP	6	96	3
TAP	6	96	5
TAP	6	192	2
TAP	6	192	4
TAP	6	288	1
TAP	6	288	3
TAP	7	0	1
TAP	7	0	7
TAP	7	96	5
TAP	7	96	7
TAP	7	192	0
TAP	7	192	2
TAP	7	288	0
TAP	7	288	6
STR	7	336	7
SI_	7	336	7	96	144	3
TAP	9	0	2
TAP	9	48	3
TAP	9	96	2
TAP	9	192	6
TAP	9	192	7
TAP	9	288	0
TAP	9	288	1
TAP	10	0	5
TAP	10	48	4
TAP	10	96	5
TAP	10	192	0
TAP	10	192	1
TAP	10	288	6
TAP	10	288	7
TAP	11	0	2
TAP	11	48	3
TAP	11	96	2
TAP	11	192	5
TAP	11	240	4
TAP	11	288	5
TAP	12	0	0
TAP	12	0	1
TAP	12	96	6
TAP	12	96	7
TAP	12	192	2
TAP	12	192	3
TAP	12	288	4
TAP	12	288	5
TAP	13	0	3
TAP	13	48	2
TAP	13	96	3
TAP	13	192	6
TAP	13	192	7
TAP	13	288	0
TAP	13	288	1
TAP	14	0	4
TAP	14	48	5
TAP	14	96	4
TAP	14	192	0
TAP	14	192	1
TAP	14	288	6
TAP	14	288	7
TAP	15	0	3
TAP	15	48	2
TAP	15	96	3
TAP	15	192	4
TAP	15	240	5
TAP	15	288	4
TAP	16	0	2
TAP	16	48	3
TAP	16	96	4
STR	16	144	5
SI_	16	144	5	96	96	1
TAP	17	0	4
TAP	17	48	5
TAP	17	96	3
TAP	17	192	6
TAP	17	192	7
TAP	17	288	0
TAP	17	288	1
TAP	18	0	3
TAP	18	48	2
TAP	18	96	4
TAP	18	192	0
TAP	18	192	1
TAP	18	288	6
TAP	18	288	7
TAP	19	0	4
TAP	19	48	5
TAP	19	96	3
TAP	19	192	3
TAP	19	240	2
TAP	19	288	4
TAP	20	0	6
TAP	20	0	7
TAP	20	96	4
TAP	20	96	5
TAP	20	192	0
TAP	20	192	1
TAP	20	288	2
TAP	20	288	3
TAP	21	0	6
TAP	21	48	5
TAP	21	96	4
TAP	21	192	0
TAP	21	192	1
TAP	21	288	6
TAP	21	288	7
TAP	22	0	1
TAP	22	48	2
TAP	22	96	3
TAP	22	192	6
TAP	22	192	7
TAP	22	288	0
TAP	22	288	1
TAP	23	0	6
TAP	23	48	5
TAP	23	96	4
TAP	23	192	1
TAP	23	240	2
TAP	23	288	3
TAP	24	0	4
TAP	24	96	0
TAP	24	96	1
TAP	24	192	0
TAP	24	192	7
STR	24	288	6
SI_	24	288	6	96	192	3
STR	24	288	7
SI_	24	288	7	96	192	2
TAP	26	0	5
TAP	26	192	2
TAP	27	0	4
TAP	27	96	4
TAP	27	96	5
TAP	27	192	3
TAP	27	288	2
TAP	27	288	3
TAP	28	0	4
TAP	28	96	3
TAP	28	96	4
TAP	28	192	3
TAP	28	240	3
TAP	28	288	3
STR	28	288	4
SI_	28	288	4	96	96	1
STR	29	96	3
SI_	29	96	3	96	96	6
STR	29	288	5
SI_	29	288	5	96	96	0
STR	30	96	2
SI_	30	96	2	96	96	7
TAP	31	0	0
TAP	31	96	0
TAP	31	96	1
TAP	31	192	7
TAP	31	288	6
TAP	31	288	7
STR	32	0	7
SCR	32	0	7	96	48	2
STR	32	144	0
SCL	32	144	0	96	48	5
TAP	33	0	1
TAP	33	0	2
TAP	33	96	7
TAP	33	192	5
TAP	33	192	6
TAP	33	288	0
TAP	34	0	5
TAP	34	48	4
TAP	34	96	5
TAP	34	192	2
TAP	34	240	3
TAP	34	288	2
TAP	35	0	7
TAP	35	48	6
TAP	35	96	7
TAP	35	192	0
TAP	35	240	1
TAP	35	288	0
HLD	36	0	7	288
STR	36	96	5
SI_	36	96	5	96	96	1
TAP	37	0	2
TAP	37	48	4
TAP	37	96	2
TAP	37	192	5
TAP	37	240	3
TAP	37	288	5
TAP	38	0	1
TAP	38	48	7
TAP	38	96	1
TAP	38	192	6
TAP	38	240	0
TAP	38	288	6
TAP	39	144	3
TAP	39	144	7
TAP	39	192	2
TAP	39	192	6
TAP	39	240	1
TAP	39	240	5
TAP	39	288	0
TAP	39	288	4
STR	39	336	3
SCR	39	336	3	96	144	6
STR	39	336	7
SCR	39	336	7	96	144	2
BRK	41	0	1
BRK	41	0	5
TAP	42	0	7
HLD	42	96	2	48
HLD	42	96	4	48
HLD	42	192	0	48
HLD	42	192	1	48
HLD	42	288	4	48
HLD	42	288	5	48
HLD	43	0	6	48
HLD	43	0	7	48
HLD	43	96	1	48
HLD	43	96	2	48
HLD	43	192	4	96
HLD	43	192	5	96
TAP	44	0	5
TAP	44	48	4
TAP	44	96	5
TAP	44	192	2
TAP	44	240	3
TAP	44	288	2
HLD	45	0	7	96
HLD	45	96	5	96
HLD	45	192	3	96
HLD	45	288	1	96
TAP	46	0	3
HLD	46	96	0	48
HLD	46	96	6	48
HLD	46	192	4	48
HLD	46	192	5	48
HLD	46	288	0	48
HLD	46	288	1	48
HLD	47	0	2	48
HLD	47	0	3	48
HLD	47	96	5	48
HLD	47	96	6	48
HLD	47	192	0	96
HLD	47	192	1	96
TAP	48	0	1
TAP	48	48	0
TAP	48	96	1
TAP	48	192	6
TAP	48	240	7
TAP	48	288	6
HLD	49	0	3	96
HLD	49	96	1	96
HLD	49	192	7	96
HLD	49	288	5	96
TAP	50	0	0
HLD	50	96	3	48
HLD	50	96	5	48
HLD	50	192	6	48
HLD	50	192	7	48
HLD	50	288	2	48
HLD	50	288	3	48
HLD	51	0	0	48
HLD	51	0	1	48
HLD	51	96	5	48
HLD	51	96	6	48
HLD	51	192	2	96
HLD	51	192	3	96
TAP	52	0	4
TAP	52	48	5
TAP	52	96	4
TAP	52	192	3
TAP	52	240	2
TAP	52	288	3
HLD	53	0	7	96
HLD	53	96	2	96
HLD	53	192	5	96
HLD	53	288	0	96
TAP	54	0	4
HLD	54	96	1	48
HLD	54	96	7	48
HLD	54	192	2	48
HLD	54	192	3	48
HLD	54	288	6	48
HLD	54	288	7	48
HLD	55	0	4	48
HLD	55	0	5	48
HLD	55	96	1	48
HLD	55	96	2	48
HLD	55	192	6	96
HLD	55	192	7	96
TAP	56	0	7
TAP	56	48	6
TAP	56	96	7
TAP	56	192	0
TAP	56	240	1
TAP	56	288	0
HLD	57	0	3	96
HLD	57	96	6	96
HLD	57	192	1	96
HLD	57	288	4	96
HLD	58	0	0	384
HLD	59	0	7	384
HLD	60	0	6	384
HLD	61	0	5	384
TAP	61	192	2
TAP	61	288	2
HLD	62	0	1	192
TAP	62	96	3
HLD	62	192	2	192
TAP	62	288	4
HLD	63	0	3	192
TAP	63	96	5
HLD	63	192	4	192
TAP	63	288	6
HLD	64	0	6	192
TAP	64	96	4
HLD	64	192	5	192
TAP	64	288	3
HLD	65	0	4	192
TAP	65	96	2
HLD	65	192	3	192
TAP	65	288	1
TAP	66	0	6

T_REC_TAP	229
T_REC_BRK	2
T_REC_XTP	0
T_REC_HLD	79
T_REC_XHO	0
T_REC_STR	15
T_REC_BST	0
T_REC_XST	0
T_REC_TTP	0
T_REC_THO	0
T_REC_SLD	15
T_REC_ALL	340
T_NUM_TAP	244
T_NUM_BRK	2
T_NUM_HLD	79
T_NUM_SLD	15
T_NUM_ALL	340
T_JUDGE_TAP	246
T_JUDGE_HLD	168
T_JUDGE_SLD	15
T_JUDGE_ALL	429
TTM_EACHPAIRS	77
TTM_SCR_TAP	122000
TTM_SCR_BRK	5200
TTM_SCR_HLD	79000
TTM_SCR_SLD	22500
TTM_SCR_ALL	228700
TTM_SCR_S	221650
TTM_SCR_SS	228500
TTM_RAT_ACV	10008

