VERSION	0.00.00	1.03.00
FES_MODE	0
BPM_DEF	144.000	144.000	144.000	144.000
MET_DEF	4	4
RESOLUTION	384
CLK_DEF	384
COMPATIBLE_CODE	MA2

BPM	0	0	144.000
MET	0	0	4	4

TAP	5	0	0
TAP	5	96	0
TAP	5	192	2
TAP	5	288	2
TAP	6	0	6
TAP	6	96	6
TAP	6	192	4
TAP	6	288	4
TAP	7	0	2
TAP	7	95	2
TAP	7	192	1
TAP	7	240	0
TAP	7	288	7
HLD	7	336	6	240
TAP	8	192	5
BRK	8	288	0
TAP	9	0	0
TAP	9	96	1
TAP	9	192	6
TAP	9	241	7
TAP	9	289	6
TAP	10	0	5
TAP	10	96	4
TAP	10	192	2
TAP	10	240	3
TAP	10	288	2
TAP	11	0	5
TAP	11	96	2
TAP	11	192	0
TAP	11	240	7
TAP	11	288	0
TAP	12	0	1
TAP	12	96	6
TAP	12	192	3
TAP	12	240	4
TAP	12	288	0
TAP	12	336	7
TAP	13	0	0
TAP	13	0	1
TAP	13	96	0
TAP	13	96	1
TAP	13	192	2
TAP	13	240	3
TAP	13	288	2
TAP	14	0	4
TAP	14	0	5
TAP	14	96	4
TAP	14	96	5
TAP	14	192	7
TAP	14	240	6
TAP	14	288	7
TAP	15	0	2
TAP	15	0	5
TAP	15	96	2
TAP	15	96	5
TAP	15	192	0
TAP	15	240	7
TAP	15	288	0
TAP	16	0	1
TAP	16	0	6
TAP	16	96	3
TAP	16	96	4
TAP	16	192	0
TAP	16	240	7
TAP	16	288	1
TAP	16	336	6
TAP	17	0	1
TAP	17	96	0
TAP	17	96	1
TAP	17	192	6
TAP	17	288	6
TAP	17	288	7
TAP	18	0	0
TAP	18	96	0
TAP	18	96	1
HLD	18	192	7	96
TAP	18	288	6
TAP	19	0	5
TAP	19	96	4
TAP	19	96	5
TAP	19	192	2
TAP	19	288	2
TAP	19	288	3
TAP	20	0	5
TAP	20	96	4
TAP	20	96	5
HLD	20	192	2	96
TAP	20	288	3
TAP	21	0	6
TAP	21	96	6
TAP	21	96	7
TAP	21	192	5
TAP	21	288	4
TAP	21	288	5
TAP	22	0	2
TAP	22	96	2
TAP	22	96	3
HLD	22	192	1	96
TAP	22	288	0
TAP	23	0	3
TAP	23	96	1
TAP	23	96	6
TAP	23	192	4
TAP	23	288	0
TAP	23	288	7
HLD	24	0	2	144
HLD	24	144	5	144
TAP	24	288	4
TAP	25	0	5
TAP	25	96	6
STR	25	192	7
SI_	25	192	7	96	48	4
TAP	26	0	3
TAP	26	96	2
STR	26	192	1
SI_	26	192	1	96	48	6
TAP	27	0	7
TAP	27	96	0
STR	27	192	0
SI_	27	192	0	96	48	3
TAP	28	0	4
TAP	28	96	5
HLD	28	192	6	96
BRK	28	288	7
TAP	29	0	2
TAP	29	96	2
STR	29	192	0
SI_	29	192	0	96	48	3
TAP	30	0	5
TAP	30	96	5
STR	30	192	7
SI_	30	192	7	96	48	4
TAP	31	0	2
TAP	31	96	2
STR	31	192	1
SI_	31	192	1	96	48	6
TAP	32	0	5
TAP	32	96	5
HLD	32	192	7	96
BRK	32	288	0
TAP	33	0	0
TAP	33	0	7
TAP	33	96	0
TAP	33	96	7
TAP	33	192	2
TAP	33	240	3
TAP	33	288	2
TAP	33	336	3
TAP	34	0	2
TAP	34	0	5
TAP	34	96	2
TAP	34	96	5
TAP	34	192	0
TAP	34	240	7
TAP	34	288	0
TAP	34	336	7
TAP	35	0	4
TAP	35	0	5
TAP	35	96	4
TAP	35	96	5
TAP	35	192	0
TAP	35	240	1
TAP	35	288	0
TAP	35	336	1
TAP	36	0	2
TAP	36	0	5
TAP	36	96	0
TAP	36	96	7
TAP	36	192	3
TAP	36	192	4
BRK	36	288	0
BRK	36	288	5
TAP	37	0	0
TAP	37	0	1
TAP	37	96	6
TAP	37	96	7
TAP	37	192	5
TAP	37	240	4
TAP	37	288	3
TAP	37	336	2
TAP	38	0	2
TAP	38	0	3
TAP	38	96	4
TAP	38	96	5
TAP	38	192	6
TAP	38	240	7
TAP	38	288	0
TAP	38	336	1
HLD	39	0	2	288
TAP	40	0	1
TAP	40	96	0
TAP	40	96	1
TAP	40	192	6
TAP	40	288	6
TAP	40	288	7
BRK	41	0	0
BRK	41	0	7
TAP	42	0	0
TAP	42	96	1
TAP	42	192	2
TAP	42	288	3
TAP	43	0	4
TAP	43	96	5
TAP	43	192	6
TAP	43	288	7
TAP	44	0	0
TAP	44	96	5
TAP	44	192	2
TAP	44	288	7
TAP	45	0	0
TAP	45	0	2
TAP	45	96	5
TAP	45	96	7
TAP	45	192	1
TAP	45	192	3
BRK	45	288	4
BRK	45	288	6
TAP	46	0	1
TAP	46	96	0
TAP	46	192	7
TAP	46	288	6
TAP	47	0	2
TAP	47	96	3
TAP	47	192	4
TAP	47	288	5
TAP	48	0	7
TAP	48	96	5
TAP	48	192	3
TAP	48	288	1
TAP	49	0	6
TAP	49	96	7
TAP	49	144	7
TAP	49	240	0
TAP	49	288	7
TAP	49	336	0
HLD	50	0	0	144
HLD	50	144	2	144
HLD	50	288	3	384
TAP	51	288	4
TAP	52	0	3
TAP	52	96	4
TAP	52	192	2
TAP	52	288	5
TAP	53	0	1
TAP	53	96	7
TAP	53	192	0
TAP	53	288	7
HLD	54	0	0	144
HLD	54	144	2	144
HLD	54	288	3	384
TAP	55	288	4
TAP	56	0	0
TAP	56	96	7
TAP	56	192	1
TAP	56	288	6
TAP	57	0	2
TAP	57	96	5
TAP	57	192	3
TAP	57	288	4
HLD	58	0	3	288
TAP	58	288	4
HLD	59	0	5	288
TAP	59	288	6
HLD	60	0	7	288
TAP	60	288	0
HLD	61	0	1	288
TAP	61	288	2
TAP	62	0	0
TAP	62	96	0
TAP	62	192	7
TAP	62	288	7
TAP	63	0	2
TAP	63	96	2
TAP	63	192	5
TAP	63	288	5
TAP	64	0	3
TAP	64	96	6
TAP	64	192	4
TAP	64	288	1
TAP	65	0	0
TAP	65	96	5
TAP	65	192	2
TAP	65	288	7
TAP	66	0	0
TAP	66	0	7

T_REC_TAP	245
T_REC_BRK	9
T_REC_XTP	0
T_REC_HLD	19
T_REC_XHO	0
T_REC_STR	6
T_REC_BST	0
T_REC_XST	0
T_REC_TTP	0
T_REC_THO	0
T_REC_SLD	6
T_REC_ALL	285
T_NUM_TAP	251
T_NUM_BRK	9
T_NUM_HLD	19
T_NUM_SLD	6
T_NUM_ALL	285
T_JUDGE_TAP	260
T_JUDGE_HLD	79
T_JUDGE_SLD	6
T_JUDGE_ALL	345
TTM_EACHPAIRS	41
TTM_SCR_TAP	125500
TTM_SCR_BRK	23400
TTM_SCR_HLD	19000
TTM_SCR_SLD	9000
TTM_SCR_ALL	176900
TTM_SCR_S	170750
TTM_SCR_SS	176000
TTM_RAT_ACV	10051

