VERSION	0.00.00	1.03.00
FES_MODE	0
BPM_DEF	144.000	144.000	144.000	144.000
MET_DEF	4	4
RESOLUTION	384
CLK_DEF	384
COMPATIBLE_CODE	MA2

BPM	0	0	144.000
MET	0	0	4	4

TAP	5	96	7
TAP	5	288	7
TAP	6	96	6
TAP	6	288	6
TAP	7	96	5
TAP	7	288	5
TAP	8	96	6
BRK	8	288	7
STR	9	0	7
SI_	9	0	7	96	192	4
TAP	11	96	0
TAP	11	288	0
TAP	12	96	1
TAP	12	288	1
STR	13	0	0
SI_	13	0	0	96	192	3
TAP	16	96	7
BRK	16	288	7
TAP	17	0	0
TAP	17	96	0
TAP	17	192	1
TAP	17	288	1
TAP	18	0	2
TAP	18	96	2
TAP	18	192	3
TAP	18	288	3
TAP	19	96	2
TAP	19	288	0
TAP	20	96	6
TAP	20	288	4
TAP	21	0	5
TAP	21	96	5
TAP	21	192	6
TAP	21	288	6
TAP	22	0	7
TAP	22	96	7
TAP	22	192	0
TAP	22	288	0
TAP	23	96	7
TAP	23	288	5
TAP	24	96	3
TAP	24	288	1
STR	25	0	2
SI_	25	0	2	96	192	5
STR	27	0	6
SI_	27	0	6	96	192	1
HLD	29	0	6	288
HLD	30	0	5	288
TAP	31	0	6
TAP	31	192	6
TAP	32	0	7
TAP	32	192	7
TAP	33	0	0
TAP	33	96	0
TAP	33	192	1
TAP	33	288	1
TAP	34	0	2
TAP	34	96	2
TAP	34	192	3
TAP	34	288	3
TAP	35	0	4
TAP	35	96	3
TAP	35	288	1
TAP	36	96	7
TAP	36	192	7
TAP	36	288	6
TAP	37	0	0
TAP	37	96	0
TAP	37	192	1
TAP	37	288	1
TAP	38	0	2
TAP	38	96	2
TAP	38	192	3
TAP	38	288	3
BRK	40	0	0
TAP	42	96	7
TAP	42	288	7
TAP	43	96	6
TAP	43	288	6
TAP	44	96	7
TAP	44	288	7
TAP	45	96	0
TAP	45	288	0
TAP	46	0	1
TAP	46	96	1
TAP	46	192	2
TAP	46	288	2
TAP	47	0	1
TAP	47	96	1
TAP	47	192	0
TAP	47	288	0
TAP	48	0	7
TAP	48	96	7
TAP	48	192	6
TAP	48	288	6
TAP	49	0	5
TAP	49	96	5
TAP	49	192	4
TAP	49	288	4
STR	50	0	3
SI_	50	0	3	96	192	0
TAP	51	96	1
TAP	51	288	2
TAP	52	96	1
TAP	52	288	0
TAP	53	96	7
TAP	53	288	6
TAP	54	0	7
TAP	54	96	7
TAP	54	192	0
TAP	54	288	0
TAP	55	0	1
TAP	55	96	1
TAP	55	192	0
TAP	55	288	0
TAP	56	0	7
TAP	56	96	7
TAP	56	192	6
TAP	56	288	6
TAP	57	0	5
TAP	57	96	5
TAP	57	192	4
TAP	57	288	4
STR	58	0	3
SI_	58	0	3	96	192	7
TAP	62	96	0
TAP	62	288	0
TAP	63	96	1
TAP	63	288	1
TAP	64	96	2
TAP	64	288	2
TAP	65	96	1
TAP	65	192	0
TAP	65	288	7
BRK	66	0	7

T_REC_TAP	117
T_REC_BRK	4
T_REC_XTP	0
T_REC_HLD	2
T_REC_XHO	0
T_REC_STR	6
T_REC_BST	0
T_REC_XST	0
T_REC_TTP	0
T_REC_THO	0
T_REC_SLD	6
T_REC_ALL	135
T_NUM_TAP	123
T_NUM_BRK	4
T_NUM_HLD	2
T_NUM_SLD	6
T_NUM_ALL	135
T_JUDGE_TAP	127
T_JUDGE_HLD	12
T_JUDGE_SLD	6
T_JUDGE_ALL	145
TTM_EACHPAIRS	0
TTM_SCR_TAP	61500
TTM_SCR_BRK	10400
TTM_SCR_HLD	2000
TTM_SCR_SLD	9000
TTM_SCR_ALL	82900
TTM_SCR_S	80050
TTM_SCR_SS	82500
TTM_RAT_ACV	10048

