VERSION	0.00.00	1.03.00
FES_MODE	0
BPM_DEF	137.000	137.000	137.000	137.000
MET_DEF	4	4
RESOLUTION	384
CLK_DEF	384
COMPATIBLE_CODE	MA2

BPM	0	0	137.000
MET	0	0	4	4

TAP	1	0	5
TAP	1	48	2
TAP	1	96	2
TAP	1	120	3
TAP	1	192	3
TAP	1	240	3
TAP	1	264	4
TAP	1	312	4
TAP	1	336	3
TAP	2	0	5
TAP	2	48	2
TAP	2	96	2
TAP	2	120	3
TAP	2	192	3
TAP	2	240	3
TAP	2	264	4
TAP	2	312	4
TAP	2	336	3
TAP	3	0	5
TAP	3	48	2
TAP	3	96	2
TAP	3	120	3
TAP	3	192	3
TAP	3	240	3
TAP	3	264	4
TAP	3	312	4
TAP	3	336	3
TAP	4	0	5
TAP	4	48	2
TAP	4	96	2
TAP	4	120	3
TAP	4	192	3
TAP	4	240	3
TAP	4	264	4
TAP	4	312	4
TAP	4	336	3
HLD	5	0	6	96
TAP	5	48	2
TAP	5	96	2
HLD	5	192	1	120
TAP	5	240	3
TAP	5	312	4
HLD	6	0	6	96
TAP	6	48	2
TAP	6	96	2
HLD	6	192	1	120
TAP	6	240	3
TAP	6	312	4
HLD	7	0	6	96
TAP	7	48	2
TAP	7	96	2
HLD	7	192	1	120
TAP	7	240	3
TAP	7	312	4
HLD	8	0	6	96
TAP	8	48	2
TAP	8	96	2
HLD	8	192	1	120
TAP	8	240	3
TAP	8	312	4
HLD	9	0	0	72
TAP	9	72	1
HLD	9	144	1	72
TAP	9	216	2
HLD	9	288	2	72
TAP	9	360	3
HLD	10	48	3	72
HLD	10	120	2	72
HLD	10	192	1	72
HLD	10	264	0	72
TAP	10	336	1
HLD	11	0	7	72
TAP	11	72	6
HLD	11	144	6	72
TAP	11	216	5
HLD	11	288	5	72
TAP	11	360	4
HLD	12	48	4	72
HLD	12	120	5	72
HLD	12	192	6	72
HLD	12	264	7	72
TAP	12	336	6
HLD	13	0	0	72
TAP	13	72	2
HLD	13	144	2	72
TAP	13	216	4
HLD	13	288	4	72
TAP	13	360	6
HLD	14	48	6	72
HLD	14	120	4	72
HLD	14	192	2	72
HLD	14	264	0	72
TAP	14	336	2
HLD	15	0	7	72
TAP	15	72	5
HLD	15	144	5	72
TAP	15	216	3
HLD	15	288	3	72
TAP	15	360	1
HLD	16	48	1	72
HLD	16	120	3	72
HLD	16	192	5	72
HLD	16	264	7	72
TAP	16	336	5
HLD	17	0	0	72
HLD	17	72	1	72
HLD	17	144	2	72
HLD	17	216	3	72
HLD	17	288	4	72
HLD	17	360	5	72
HLD	18	48	6	72
HLD	18	120	7	72
HLD	18	192	5	72
HLD	18	264	3	72
TAP	18	336	1
HLD	19	0	7	72
HLD	19	72	6	72
HLD	19	144	5	72
HLD	19	216	4	72
HLD	19	288	3	72
HLD	19	360	2	72
HLD	20	48	1	72
HLD	20	120	0	72
HLD	20	192	2	72
HLD	20	264	4	72
TAP	20	336	6
TAP	21	0	0
STR	21	96	0
SCL	21	96	0	96	48	5
TAP	21	144	0
STR	21	240	7
SCR	21	240	7	96	48	2
TAP	22	48	5
TAP	22	120	4
TAP	22	120	5
TAP	22	192	2
TAP	22	264	2
TAP	22	264	3
STR	22	336	0
SCL	22	336	0	96	48	5
TAP	23	0	0
STR	23	96	7
SCR	23	96	7	96	48	2
TAP	23	144	7
TAP	23	240	6
TAP	23	288	5
HLD	23	336	4	96
TAP	24	120	2
TAP	24	120	3
TAP	24	192	3
TAP	24	192	4
TAP	24	264	4
TAP	24	264	5
STR	24	336	3
SCR	24	336	3	96	48	6
TAP	25	0	3
TAP	25	96	4
STR	25	144	4
SCL	25	144	4	96	48	1
HLD	25	336	2	240
HLD	25	336	5	240
STR	26	288	5
SI_	26	288	5	96	96	0
HLD	26	336	5	144
TAP	27	144	3
TAP	27	144	7
STR	27	240	0
SCL	27	240	0	96	48	5
STR	27	240	4
SCL	27	240	4	96	48	1
TAP	28	96	2
TAP	28	96	5
TAP	28	192	4
TAP	28	240	3
TAP	28	264	4
TAP	28	312	2
TAP	28	312	5
TAP	29	0	0
STR	29	96	0
SCL	29	96	0	96	48	5
TAP	29	144	0
STR	29	240	7
SCR	29	240	7	96	48	2
TAP	30	48	5
TAP	30	120	4
TAP	30	120	5
TAP	30	192	2
TAP	30	264	2
TAP	30	264	3
STR	30	336	0
SCL	30	336	0	96	48	5
TAP	31	0	0
STR	31	96	7
SCR	31	96	7	96	48	2
TAP	31	144	7
TAP	31	240	6
TAP	31	288	5
HLD	31	336	4	96
TAP	32	120	4
TAP	32	120	5
TAP	32	192	3
TAP	32	192	4
TAP	32	264	2
TAP	32	264	3
TAP	32	336	2
HLD	33	0	1	96
HLD	33	96	0	96
HLD	33	192	7	96
HLD	33	288	6	96
STR	34	0	7
SI_	34	0	7	96	48	4
STR	34	96	7
SI_	34	96	7	96	48	3
TAP	34	192	7
STR	34	240	7
SCL	34	240	7	96	96	4
TAP	35	96	5
TAP	35	96	7
TAP	35	192	0
TAP	35	192	2
TAP	35	264	5
TAP	35	264	7
TAP	36	48	0
TAP	36	48	2
TAP	36	120	0
TAP	36	120	2
TAP	36	192	5
TAP	36	192	7
TAP	36	264	0
TAP	36	264	2
HLD	37	48	7	96
TAP	37	96	6
TAP	37	144	5
HLD	37	240	0	96
TAP	37	288	1
TAP	37	336	2
HLD	38	48	7	96
TAP	38	96	6
HLD	38	144	5	96
TAP	38	192	4
HLD	38	240	3	96
TAP	38	288	2
TAP	38	336	1
STR	39	0	7
SCL	39	0	7	96	48	4
TAP	39	48	7
TAP	39	144	1
TAP	39	192	1
TAP	39	240	3
TAP	39	264	2
TAP	39	312	2
TAP	39	336	3
STR	40	0	0
SCR	40	0	0	96	48	3
TAP	40	48	0
TAP	40	144	6
TAP	40	192	6
TAP	40	240	5
TAP	40	264	4
TAP	40	312	4
TAP	40	336	5
TAP	40	360	6
HLD	41	48	7	96
TAP	41	96	5
TAP	41	144	4
HLD	41	240	1	96
TAP	41	288	2
TAP	41	336	3
HLD	42	48	4	96
TAP	42	96	7
HLD	42	144	2	96
HLD	42	240	0	96
TAP	42	288	3
STR	42	336	5
SI_	42	336	5	96	240	0
BRK	44	0	0
TAP	44	192	0
TAP	44	204	1
TAP	44	216	2
TAP	44	228	3
TAP	44	240	4
TAP	44	252	5
TAP	44	264	6
TAP	44	276	7
TAP	44	288	0
HLD	45	0	0	96
STR	45	96	7
SI_	45	96	7	96	96	2
HLD	45	144	7	144
TAP	45	336	0
TAP	45	336	2
TAP	46	0	1
TAP	46	0	3
TAP	46	96	5
TAP	46	96	7
TAP	46	144	4
TAP	46	144	6
STR	46	336	4
SI_	46	336	4	96	48	1
TAP	47	0	4
STR	47	96	3
SI_	47	96	3	96	48	6
TAP	47	144	3
STR	47	240	7
SCR	47	240	7	96	96	2
TAP	48	48	6
TAP	48	96	5
TAP	48	144	4
TAP	48	192	3
TAP	48	240	3
TAP	48	264	4
TAP	48	312	4
TAP	48	336	5
HLD	49	0	4	96
TAP	49	96	5
HLD	49	144	5	96
HLD	49	240	6	96
HLD	49	336	7	144
STR	50	96	0
SI_	50	96	0	96	48	3
STR	50	192	0
SI_	50	192	0	96	48	4
STR	50	288	0
SCR	50	288	0	96	48	3
TAP	51	240	6
TAP	51	240	7
TAP	51	288	0
TAP	51	288	5
TAP	51	336	1
TAP	51	336	4
TAP	52	48	2
TAP	52	96	3
TAP	52	144	4
TAP	52	192	5
TAP	52	240	4
TAP	52	264	5
TAP	52	288	4
TAP	52	336	5
HLD	53	0	7	96
STR	53	96	0
SI_	53	96	0	96	96	5
HLD	53	144	0	144
TAP	53	336	5
TAP	53	336	7
TAP	54	0	4
TAP	54	0	6
TAP	54	96	0
TAP	54	96	2
TAP	54	144	1
TAP	54	144	3
STR	54	336	3
SI_	54	336	3	96	48	6
TAP	55	0	3
STR	55	96	4
SI_	55	96	4	96	48	1
TAP	55	144	4
STR	55	240	0
SCL	55	240	0	96	96	5
TAP	56	48	1
TAP	56	96	2
TAP	56	144	3
TAP	56	192	4
TAP	56	240	4
TAP	56	264	3
TAP	56	312	3
TAP	56	336	2
HLD	57	0	3	96
TAP	57	96	2
HLD	57	144	2	96
HLD	57	240	1	96
HLD	57	336	0	144
STR	58	96	7
SI_	58	96	7	96	48	4
STR	58	192	7
SI_	58	192	7	96	48	3
STR	58	288	7
SCL	58	288	7	96	48	4
TAP	59	240	0
TAP	59	240	1
TAP	59	288	2
TAP	59	288	7
TAP	59	336	3
TAP	59	336	6
TAP	60	48	6
TAP	60	96	5
TAP	60	144	4
STR	60	192	3
SCL	60	192	3	96	48	0
TAP	60	240	3
TAP	61	0	6
TAP	61	24	7
TAP	61	48	6
TAP	61	72	7
TAP	61	144	1
TAP	61	168	0
TAP	61	192	1
TAP	61	216	0
TAP	61	288	5
TAP	61	312	4
TAP	61	336	5
TAP	61	360	4
TAP	62	48	2
TAP	62	72	3
TAP	62	96	2
TAP	62	120	3
TAP	62	192	0
TAP	62	216	7
TAP	62	240	0
TAP	62	264	7
TAP	63	0	7
TAP	63	24	6
TAP	63	48	5
TAP	63	72	4
TAP	63	144	0
TAP	63	168	1
TAP	63	192	2
TAP	63	216	3
TAP	63	288	0
TAP	63	312	7
TAP	63	336	6
TAP	63	360	5
TAP	64	48	7
TAP	64	72	0
TAP	64	96	1
TAP	64	120	2
TAP	64	192	1
TAP	64	216	0
TAP	64	240	7
TAP	64	264	6
TAP	65	0	0
TAP	65	24	1
TAP	65	48	2
TAP	65	72	7
TAP	65	96	6
TAP	65	120	5
TAP	65	144	0
TAP	65	168	1
TAP	65	192	2
TAP	65	216	7
TAP	65	240	6
TAP	65	264	5
TAP	65	288	1
TAP	65	312	2
TAP	65	336	3
TAP	65	360	6
TAP	66	0	5
TAP	66	24	4
TAP	66	48	1
TAP	66	72	2
TAP	66	96	3
TAP	66	120	6
TAP	66	144	5
TAP	66	168	4
TAP	66	192	0
TAP	66	216	1
TAP	66	240	2
TAP	66	264	7
TAP	66	288	6
TAP	66	312	5
TAP	66	336	4
TAP	67	0	7
TAP	67	24	0
TAP	67	48	1
TAP	67	72	0
TAP	67	96	7
TAP	67	120	6
TAP	67	144	7
TAP	67	168	0
TAP	67	192	1
TAP	67	216	0
TAP	67	240	7
TAP	67	264	6
TAP	67	288	4
TAP	67	312	3
TAP	67	336	2
TAP	67	360	3
TAP	68	0	4
TAP	68	24	5
TAP	68	48	4
TAP	68	72	3
TAP	68	96	2
TAP	68	120	3
TAP	68	144	4
TAP	68	168	5
TAP	68	192	7
TAP	68	216	0
TAP	68	240	1
TAP	68	264	0
TAP	68	288	7
TAP	68	312	6
TAP	68	336	5
HLD	69	0	0	72
HLD	69	72	2	72
HLD	69	144	4	72
HLD	69	216	6	72
HLD	69	288	7	72
HLD	69	360	5	72
HLD	70	48	3	72
HLD	70	120	1	72
HLD	70	192	0	72
STR	70	264	7
SI_	70	264	7	96	48	3

T_REC_TAP	335
T_REC_BRK	1
T_REC_XTP	0
T_REC_HLD	96
T_REC_XHO	0
T_REC_STR	35
T_REC_BST	0
T_REC_XST	0
T_REC_TTP	0
T_REC_THO	0
T_REC_SLD	35
T_REC_ALL	502
T_NUM_TAP	370
T_NUM_BRK	1
T_NUM_HLD	96
T_NUM_SLD	35
T_NUM_ALL	502
T_JUDGE_TAP	371
T_JUDGE_HLD	207
T_JUDGE_SLD	35
T_JUDGE_ALL	613
TTM_EACHPAIRS	36
TTM_SCR_TAP	185000
TTM_SCR_BRK	2600
TTM_SCR_HLD	96000
TTM_SCR_SLD	52500
TTM_SCR_ALL	336100
TTM_SCR_S	325950
TTM_SCR_SS	336000
TTM_RAT_ACV	10002

