VERSION	0.00.00	1.03.00
FES_MODE	0
BPM_DEF	137.000	137.000	137.000	137.000
MET_DEF	4	4
RESOLUTION	384
CLK_DEF	384
COMPATIBLE_CODE	MA2

BPM	0	0	137.000
MET	0	0	4	4

STR	1	0	1
SCL	1	0	1	96	192	6
STR	2	0	7
SI_	2	0	7	96	192	3
STR	3	0	2
SCR	3	0	2	96	192	5
STR	4	0	4
SI_	4	0	4	96	192	0
TAP	5	0	1
TAP	5	48	1
STR	5	96	1
SI_	5	96	1	96	96	4
TAP	6	0	5
TAP	6	48	5
STR	6	96	5
SI_	6	96	5	96	96	0
TAP	7	0	1
TAP	7	48	2
STR	7	96	1
SI_	7	96	1	96	96	6
STR	7	96	2
SI_	7	96	2	96	96	5
TAP	8	0	0
TAP	8	48	7
STR	8	96	0
SI_	8	96	0	96	96	3
STR	8	96	7
SI_	8	96	7	96	96	4
HLD	9	0	6	96
HLD	9	144	7	96
HLD	9	288	0	96
HLD	10	48	1	96
TAP	10	192	2
TAP	10	240	5
TAP	10	288	2
HLD	11	0	1	96
HLD	11	144	0	96
HLD	11	288	7	96
HLD	12	48	6	96
TAP	12	192	5
TAP	12	240	2
TAP	12	288	5
TAP	13	0	2
TAP	13	96	2
STR	13	144	1
SI_	13	144	1	96	48	4
TAP	13	288	7
TAP	14	0	7
STR	14	48	0
SI_	14	48	0	96	48	5
TAP	14	192	7
TAP	14	240	0
TAP	14	288	1
TAP	15	0	5
TAP	15	96	5
STR	15	144	6
SI_	15	144	6	96	48	3
TAP	15	288	0
TAP	16	0	0
STR	16	48	7
SI_	16	48	7	96	48	2
TAP	16	192	0
TAP	16	240	7
TAP	16	288	6
STR	17	0	6
SI_	17	0	6	96	48	2
STR	17	144	7
SI_	17	144	7	96	48	3
STR	17	288	1
SI_	17	288	1	96	48	5
STR	18	48	0
SI_	18	48	0	96	48	4
TAP	18	192	7
TAP	18	240	0
TAP	18	288	7
STR	19	0	1
SI_	19	0	1	96	48	5
STR	19	144	0
SI_	19	144	0	96	48	4
STR	19	288	6
SI_	19	288	6	96	48	2
STR	20	48	7
SI_	20	48	7	96	48	3
TAP	20	192	0
TAP	20	240	7
TAP	20	288	0
HLD	21	0	1	336
TAP	21	144	0
TAP	21	240	7
STR	21	336	6
SI_	21	336	6	96	144	3
HLD	23	0	5	336
TAP	23	144	4
TAP	23	240	3
STR	23	336	2
SI_	23	336	2	96	144	7
TAP	24	288	6
TAP	24	336	7
HLD	25	0	0	384
TAP	25	96	1
TAP	25	192	7
TAP	25	288	1
HLD	26	0	7	384
TAP	26	96	6
TAP	26	192	0
TAP	26	288	6
HLD	27	0	2	384
TAP	27	96	3
TAP	27	192	1
TAP	27	288	3
HLD	28	0	5	288
TAP	28	96	4
TAP	28	192	6
TAP	28	288	4
TAP	29	0	0
TAP	29	96	7
TAP	29	144	6
STR	29	240	0
SCR	29	240	0	96	240	3
STR	29	240	5
SCR	29	240	5	96	240	0
TAP	31	0	7
TAP	31	96	0
TAP	31	144	1
STR	31	240	2
SCL	31	240	2	96	240	7
STR	31	240	7
SCL	31	240	7	96	240	4
HLD	33	0	7	96
HLD	33	96	0	96
HLD	33	192	7	96
TAP	33	288	1
HLD	34	0	0	96
HLD	34	96	7	96
HLD	34	192	6	768
STR	34	240	0
SI_	34	240	0	96	336	4
STR	37	48	0
SI_	37	48	0	96	96	3
STR	37	96	7
SI_	37	96	7	96	96	4
STR	38	48	6
SI_	38	48	6	96	96	1
STR	38	96	2
SI_	38	96	2	96	96	5
STR	39	48	0
SI_	39	48	0	96	48	5
STR	39	96	5
SI_	39	96	5	96	48	2
STR	40	48	6
SI_	40	48	6	96	48	1
STR	40	96	1
SI_	40	96	1	96	48	4
STR	41	48	7
SI_	41	48	7	96	96	4
TAP	41	96	7
STR	41	144	7
SI_	41	144	7	96	96	2
STR	42	48	3
SI_	42	48	3	96	96	0
TAP	42	96	3
STR	42	144	3
SI_	42	144	3	96	96	6
STR	43	0	1
SI_	43	0	1	96	288	6
STR	43	288	0
SI_	43	288	0	96	144	3
TAP	43	336	7
HLD	45	0	0	288
STR	45	0	1
SI_	45	0	1	96	192	6
STR	46	0	6
SI_	46	0	6	96	192	1
HLD	46	0	7	288
STR	47	0	1
SCL	47	0	1	96	192	6
BRK	47	144	1
BRK	47	240	0
BRK	47	336	7
STR	48	336	2
SI_	48	336	2	96	144	7
HLD	49	0	2	288
STR	49	336	5
SI_	49	336	5	96	144	0
HLD	50	0	5	288
HLD	51	0	2	192
HLD	51	0	5	192
TAP	51	240	3
TAP	51	240	4
TAP	51	288	2
TAP	51	288	5
HLD	51	336	3	240
HLD	51	336	4	240
TAP	53	0	1
TAP	53	0	7
STR	53	96	0
SI_	53	96	0	96	96	4
TAP	53	144	1
TAP	53	144	7
TAP	54	0	0
TAP	54	0	6
STR	54	96	7
SI_	54	96	7	96	96	3
TAP	54	144	0
TAP	54	144	6
HLD	55	0	0	96
STR	55	144	0
SI_	55	144	0	96	48	3
STR	55	240	0
SI_	55	240	0	96	48	4
STR	55	336	0
SI_	55	336	0	96	144	5
STR	57	0	1
SCR	57	0	1	96	48	4
HLD	57	0	7	672
STR	57	192	5
SCL	57	192	5	96	48	2
STR	58	0	1
SCR	58	0	1	96	48	4
STR	58	192	5
SCL	58	192	5	96	48	2
HLD	59	0	1	192
HLD	59	0	6	192
TAP	59	240	0
TAP	59	240	7
STR	59	288	1
SI_	59	288	1	96	144	6
TAP	59	288	6
TAP	59	336	2
STR	59	336	5
SI_	59	336	5	96	144	2
HLD	61	0	0	72
TAP	61	72	7
HLD	61	144	7	72
TAP	61	216	6
HLD	61	288	6	72
TAP	61	360	5
HLD	62	48	5	72
TAP	62	120	4
HLD	62	192	4	72
HLD	62	264	3	72
TAP	62	336	4
HLD	63	0	7	144
TAP	63	72	0
HLD	63	144	0	144
TAP	63	216	1
HLD	63	288	1	144
TAP	63	360	2
HLD	64	48	2	144
TAP	64	120	3
HLD	64	192	3	72
HLD	64	264	4	72
TAP	64	336	3
STR	65	0	1
SI_	65	0	1	96	48	5
STR	65	144	0
SI_	65	144	0	96	48	4
STR	65	288	7
SI_	65	288	7	96	48	3
STR	66	48	6
SI_	66	48	6	96	48	2
STR	66	192	5
SI_	66	192	5	96	48	1
STR	67	0	6
SI_	67	0	6	96	48	2
TAP	67	72	6
STR	67	144	7
SI_	67	144	7	96	48	3
TAP	67	216	7
STR	67	288	0
SI_	67	288	0	96	48	4
TAP	67	360	0
STR	68	48	1
SI_	68	48	1	96	48	5
TAP	68	120	1
STR	68	192	2
SI_	68	192	2	96	48	6
TAP	68	264	2
TAP	69	0	1
TAP	69	72	0
TAP	69	144	7
TAP	69	216	6
TAP	69	288	5
TAP	69	360	4
TAP	70	48	3
TAP	70	120	2
TAP	70	192	6
TAP	70	240	0
TAP	70	288	2
TAP	70	336	4

T_REC_TAP	105
T_REC_BRK	3
T_REC_XTP	0
T_REC_HLD	44
T_REC_XHO	0
T_REC_STR	69
T_REC_BST	0
T_REC_XST	0
T_REC_TTP	0
T_REC_THO	0
T_REC_SLD	69
T_REC_ALL	290
T_NUM_TAP	174
T_NUM_BRK	3
T_NUM_HLD	44
T_NUM_SLD	69
T_NUM_ALL	290
T_JUDGE_TAP	177
T_JUDGE_HLD	180
T_JUDGE_SLD	69
T_JUDGE_ALL	426
TTM_EACHPAIRS	19
TTM_SCR_TAP	87000
TTM_SCR_BRK	7800
TTM_SCR_HLD	44000
TTM_SCR_SLD	103500
TTM_SCR_ALL	242300
TTM_SCR_S	234750
TTM_SCR_SS	242000
TTM_RAT_ACV	10012

