VERSION	0.00.00	1.03.00
FES_MODE	0
BPM_DEF	137.000	137.000	137.000	137.000
MET_DEF	4	4
RESOLUTION	384
CLK_DEF	384
COMPATIBLE_CODE	MA2

BPM	0	0	137.000
MET	0	0	4	4

TAP	1	0	2
TAP	1	96	2
TAP	1	288	2
TAP	2	96	2
TAP	2	288	2
TAP	3	96	2
TAP	3	288	2
TAP	4	0	1
TAP	4	96	0
TAP	4	192	7
TAP	4	288	6
HLD	5	0	4	96
TAP	5	192	3
TAP	5	288	3
HLD	6	0	2	96
TAP	6	192	1
TAP	6	288	1
HLD	7	0	0	96
TAP	7	192	7
TAP	7	288	7
HLD	8	0	6	96
TAP	8	192	5
TAP	8	288	5
TAP	9	0	3
TAP	9	0	4
TAP	9	96	2
TAP	9	192	1
TAP	9	288	0
TAP	10	0	7
TAP	10	96	6
TAP	10	192	5
TAP	10	288	1
TAP	10	288	6
TAP	11	0	0
TAP	11	0	7
TAP	11	96	1
TAP	11	192	2
TAP	11	288	3
TAP	12	0	4
TAP	12	96	5
TAP	12	192	6
BRK	12	288	0
BRK	12	288	7
TAP	13	0	0
HLD	13	0	1	96
TAP	13	192	3
TAP	13	288	5
HLD	14	0	7	96
TAP	14	96	0
TAP	14	192	1
TAP	14	288	0
TAP	14	288	1
HLD	15	0	2	96
TAP	15	0	3
TAP	15	192	4
TAP	15	288	6
HLD	16	0	0	96
TAP	16	96	7
TAP	16	192	6
TAP	16	288	6
TAP	16	288	7
HLD	17	0	1	96
TAP	17	96	2
HLD	17	192	6	96
TAP	17	288	5
TAP	18	0	5
TAP	18	96	4
TAP	18	192	3
TAP	18	288	2
TAP	19	0	1
TAP	19	96	0
TAP	19	96	1
TAP	19	192	6
TAP	19	288	6
TAP	19	288	7
TAP	20	0	1
TAP	20	96	0
TAP	20	96	1
TAP	20	192	6
BRK	20	288	6
BRK	20	288	7
HLD	21	0	7	96
TAP	21	96	6
TAP	21	144	6
STR	21	240	5
SI_	21	240	5	96	144	2
TAP	22	240	0
TAP	22	288	1
TAP	22	336	7
TAP	23	0	6
TAP	23	96	3
TAP	23	144	4
TAP	23	240	0
TAP	23	288	7
HLD	23	336	0	240
TAP	24	288	2
TAP	24	336	2
TAP	25	0	2
TAP	25	96	4
TAP	25	144	4
STR	25	240	6
SI_	25	240	6	96	144	1
TAP	26	288	0
TAP	26	336	7
HLD	27	0	6	144
TAP	27	144	5
TAP	27	240	4
HLD	27	336	3	336
TAP	28	288	2
HLD	29	0	1	96
TAP	29	96	0
TAP	29	144	0
STR	29	240	7
SI_	29	240	7	96	144	4
TAP	30	240	5
TAP	30	288	4
TAP	30	336	3
TAP	31	0	2
TAP	31	96	5
TAP	31	144	6
TAP	31	240	0
TAP	31	288	1
HLD	31	336	2	240
TAP	32	288	3
TAP	32	336	3
TAP	33	0	3
TAP	33	96	4
TAP	33	192	5
TAP	33	288	6
TAP	34	0	7
TAP	34	96	0
TAP	34	192	7
HLD	34	240	0	96
TAP	34	336	7
TAP	35	96	0
TAP	35	192	0
BRK	35	264	0
BRK	35	264	1
TAP	36	48	7
TAP	36	120	7
TAP	36	192	6
BRK	36	264	6
BRK	36	264	7
TAP	37	0	0
TAP	37	0	2
HLD	37	96	1	96
TAP	37	288	1
TAP	38	0	2
TAP	38	0	4
HLD	38	96	3	96
TAP	38	288	3
TAP	39	0	4
TAP	39	0	6
HLD	39	96	5	96
TAP	39	288	5
TAP	40	0	5
TAP	40	0	7
HLD	40	96	6	96
TAP	40	288	6
TAP	41	0	0
TAP	41	0	1
HLD	41	96	7	96
TAP	41	192	6
TAP	41	288	6
TAP	42	0	4
TAP	42	0	5
HLD	42	96	3	96
TAP	42	192	2
TAP	42	288	2
TAP	43	0	3
TAP	43	0	4
HLD	43	96	1	96
TAP	43	192	6
TAP	43	288	2
BRK	44	0	0
BRK	44	0	7
HLD	45	0	0	144
HLD	45	144	1	144
TAP	45	288	2
TAP	46	0	3
TAP	46	96	3
HLD	46	144	3	144
TAP	47	0	4
TAP	47	96	4
TAP	47	144	3
TAP	47	240	5
HLD	47	336	5	240
TAP	48	288	6
TAP	49	0	4
TAP	49	96	2
TAP	49	144	2
TAP	49	240	0
HLD	49	336	7	144
TAP	50	96	6
TAP	50	192	5
TAP	50	288	4
HLD	51	0	3	240
TAP	51	240	4
TAP	51	288	4
HLD	51	336	4	144
TAP	52	96	3
TAP	52	192	2
BRK	52	288	1
HLD	53	0	7	144
HLD	53	144	6	144
TAP	53	288	5
TAP	54	0	4
TAP	54	96	2
HLD	54	144	2	144
TAP	55	0	0
TAP	55	96	4
TAP	55	144	3
TAP	55	240	6
HLD	55	336	6	240
TAP	56	288	5
TAP	57	0	6
TAP	57	96	7
TAP	57	144	0
TAP	57	240	1
TAP	57	336	2
TAP	58	96	3
TAP	58	192	6
TAP	58	288	1
HLD	59	0	7	240
TAP	59	240	0
TAP	59	288	0
HLD	59	336	0	144
STR	60	96	7
SI_	60	96	7	96	96	4
HLD	61	0	3	96
TAP	61	96	4
TAP	61	192	3
TAP	61	288	4
TAP	62	0	0
TAP	62	96	7
HLD	62	192	0	96
TAP	62	288	7
TAP	63	0	0
TAP	63	96	0
TAP	63	96	1
TAP	63	192	0
TAP	63	288	0
TAP	63	288	1
TAP	64	0	7
TAP	64	96	6
HLD	64	192	7	96
TAP	64	288	6
HLD	65	0	5	96
TAP	65	96	4
TAP	65	192	5
TAP	65	288	4
TAP	66	0	2
TAP	66	96	3
HLD	66	192	2	96
TAP	66	288	3
HLD	67	0	6	96
TAP	67	96	5
TAP	67	192	6
TAP	67	288	5
TAP	68	0	3
TAP	68	96	4
TAP	68	192	2
TAP	68	288	5
BRK	69	0	0
BRK	69	0	7

T_REC_TAP	201
T_REC_BRK	13
T_REC_XTP	0
T_REC_HLD	43
T_REC_XHO	0
T_REC_STR	4
T_REC_BST	0
T_REC_XST	0
T_REC_TTP	0
T_REC_THO	0
T_REC_SLD	4
T_REC_ALL	265
T_NUM_TAP	205
T_NUM_BRK	13
T_NUM_HLD	43
T_NUM_SLD	4
T_NUM_ALL	265
T_JUDGE_TAP	218
T_JUDGE_HLD	119
T_JUDGE_SLD	4
T_JUDGE_ALL	341
TTM_EACHPAIRS	25
TTM_SCR_TAP	102500
TTM_SCR_BRK	33800
TTM_SCR_HLD	43000
TTM_SCR_SLD	6000
TTM_SCR_ALL	185300
TTM_SCR_S	178500
TTM_SCR_SS	184000
TTM_RAT_ACV	10070

