VERSION	0.00.00	1.03.00
FES_MODE	0
BPM_DEF	137.000	137.000	137.000	137.000
MET_DEF	4	4
RESOLUTION	384
CLK_DEF	384
COMPATIBLE_CODE	MA2

BPM	0	0	137.000
MET	0	0	4	4

TAP	3	0	6
TAP	3	192	6
TAP	4	0	7
BRK	4	192	7
TAP	5	0	0
TAP	5	96	0
TAP	5	192	0
TAP	6	0	1
TAP	6	96	1
TAP	6	192	1
TAP	7	0	0
TAP	7	96	0
TAP	7	192	0
TAP	8	0	7
TAP	8	96	7
TAP	8	192	7
HLD	9	0	6	288
HLD	10	0	5	288
HLD	11	0	6	288
HLD	12	0	7	288
STR	13	0	0
SI_	13	0	0	96	192	3
STR	15	0	4
SI_	15	0	4	96	192	7
TAP	17	0	0
TAP	17	192	1
TAP	18	0	2
TAP	18	192	3
TAP	19	0	4
TAP	19	192	5
TAP	20	0	6
BRK	20	192	7
TAP	21	0	0
TAP	21	96	0
TAP	22	0	7
TAP	22	96	7
TAP	23	0	0
TAP	23	96	0
TAP	24	0	1
TAP	24	96	1
HLD	25	0	0	288
HLD	26	0	7	288
TAP	27	0	7
TAP	27	192	6
TAP	28	0	5
TAP	28	192	4
TAP	29	0	5
TAP	29	96	5
TAP	30	0	6
TAP	30	96	6
TAP	31	0	5
TAP	31	96	5
TAP	32	0	4
TAP	32	96	4
HLD	33	0	2	288
HLD	34	0	1	288
STR	35	0	0
SI_	35	0	0	96	192	3
TAP	37	0	3
TAP	37	192	4
TAP	38	0	3
TAP	38	192	4
TAP	39	0	3
TAP	39	192	2
TAP	40	0	1
TAP	40	192	0
TAP	41	0	7
TAP	41	192	0
TAP	42	0	7
TAP	42	192	0
TAP	43	0	7
TAP	43	192	6
TAP	44	0	7
TAP	44	96	7
BRK	44	288	7
HLD	45	0	0	144
HLD	46	0	1	144
TAP	47	0	0
TAP	47	96	0
TAP	48	0	6
TAP	48	96	6
TAP	49	0	0
TAP	49	96	0
TAP	50	0	2
TAP	50	96	2
TAP	51	0	0
TAP	51	96	0
TAP	52	0	6
TAP	52	96	6
BRK	52	288	7
HLD	53	0	7	144
HLD	54	0	6	144
TAP	55	0	7
TAP	55	96	7
TAP	56	0	1
TAP	56	96	1
TAP	57	0	7
TAP	57	96	7
TAP	58	0	5
TAP	58	96	5
STR	59	0	7
SI_	59	0	7	96	192	4
TAP	61	0	0
TAP	61	192	0
TAP	62	0	7
TAP	62	192	7
TAP	63	0	6
TAP	63	192	6
TAP	64	0	5
TAP	64	192	5
TAP	65	0	6
TAP	65	192	7
TAP	66	0	0
TAP	66	192	1
TAP	67	0	2
TAP	67	192	3
TAP	68	0	4
TAP	68	192	5
BRK	69	0	6

T_REC_TAP	94
T_REC_BRK	5
T_REC_XTP	0
T_REC_HLD	12
T_REC_XHO	0
T_REC_STR	4
T_REC_BST	0
T_REC_XST	0
T_REC_TTP	0
T_REC_THO	0
T_REC_SLD	4
T_REC_ALL	119
T_NUM_TAP	98
T_NUM_BRK	5
T_NUM_HLD	12
T_NUM_SLD	4
T_NUM_ALL	119
T_JUDGE_TAP	103
T_JUDGE_HLD	60
T_JUDGE_SLD	4
T_JUDGE_ALL	167
TTM_EACHPAIRS	0
TTM_SCR_TAP	49000
TTM_SCR_BRK	13000
TTM_SCR_HLD	12000
TTM_SCR_SLD	6000
TTM_SCR_ALL	80000
TTM_SCR_S	77150
TTM_SCR_SS	79500
TTM_RAT_ACV	10062

