VERSION	0.00.00	1.03.00
FES_MODE	0
BPM_DEF	260.000	260.000	260.000	260.000
MET_DEF	4	4
RESOLUTION	384
CLK_DEF	384
COMPATIBLE_CODE	MA2

BPM	0	0	260.000
MET	0	0	4	4

HLD	5	0	1	192
HLD	5	0	6	192
TAP	5	288	4
TAP	5	288	5
TAP	6	0	2
TAP	6	0	3
TAP	6	288	4
TAP	6	288	6
TAP	7	0	1
TAP	7	0	3
TAP	7	288	5
TAP	7	288	7
TAP	8	0	0
TAP	8	0	2
TAP	8	288	2
TAP	8	288	5
TAP	9	0	5
TAP	9	48	6
TAP	9	144	3
TAP	9	144	4
TAP	9	192	2
TAP	9	240	1
TAP	9	336	0
TAP	9	336	7
TAP	10	0	1
TAP	10	0	6
TAP	10	288	3
TAP	10	288	4
TAP	11	0	0
TAP	11	0	7
TAP	11	288	3
TAP	11	288	6
TAP	12	0	1
TAP	12	0	4
TAP	12	288	3
TAP	12	288	4
TAP	13	0	1
TAP	13	0	4
TAP	13	144	3
TAP	13	144	5
TAP	13	288	4
TAP	13	288	7
HLD	14	0	6	96
TAP	14	96	5
TAP	14	192	4
HLD	14	240	3	192
TAP	14	336	2
TAP	15	48	2
TAP	15	144	3
TAP	15	192	4
TAP	15	240	5
TAP	15	288	6
HLD	16	0	1	96
TAP	16	96	2
TAP	16	192	3
HLD	16	240	4	96
TAP	16	336	2
HLD	17	0	6	96
HLD	17	96	4	96
HLD	17	192	2	96
HLD	17	288	0	96
HLD	18	0	6	96
TAP	18	96	5
TAP	18	192	4
HLD	18	240	3	192
TAP	18	336	2
TAP	19	48	2
TAP	19	144	3
TAP	19	192	4
TAP	19	240	5
TAP	19	288	6
TAP	20	0	2
TAP	20	96	5
TAP	20	192	3
TAP	20	192	6
TAP	20	288	1
TAP	20	288	2
TAP	21	0	4
TAP	21	48	5
TAP	21	96	6
TAP	21	144	7
TAP	21	192	0
TAP	21	240	1
TAP	21	288	2
TAP	21	336	3
HLD	22	0	6	96
TAP	22	96	5
HLD	22	192	1	96
TAP	22	288	2
HLD	23	0	5	96
TAP	23	96	6
HLD	23	192	2	96
TAP	23	288	1
HLD	24	0	7	96
TAP	24	96	4
HLD	24	192	0	96
TAP	24	288	3
TAP	25	0	3
TAP	25	0	5
TAP	25	96	2
TAP	25	96	4
TAP	25	192	3
TAP	25	216	4
TAP	25	240	3
TAP	25	336	4
HLD	26	0	0	96
TAP	26	0	5
TAP	26	96	5
TAP	26	192	4
HLD	26	192	7	96
TAP	26	288	4
TAP	27	0	3
HLD	27	0	6	96
TAP	27	96	3
TAP	27	192	2
HLD	27	192	5	96
TAP	27	288	2
TAP	28	0	1
HLD	28	0	4	96
TAP	28	96	1
TAP	28	192	0
HLD	28	192	3	96
TAP	28	288	0
TAP	29	0	6
TAP	29	0	7
TAP	29	96	0
TAP	29	96	1
TAP	29	192	2
TAP	29	192	5
STR	30	0	0
SI_	30	0	0	96	192	3
TAP	30	0	7
TAP	30	96	6
TAP	30	192	5
TAP	30	288	4
TAP	31	0	0
STR	31	0	7
SI_	31	0	7	96	192	4
TAP	31	96	1
TAP	31	192	2
TAP	31	288	3
STR	32	0	0
SI_	32	0	0	96	192	3
TAP	32	0	7
TAP	32	96	6
TAP	32	192	5
TAP	32	288	4
BRK	33	0	6
BRK	33	96	4
BRK	33	192	2
BRK	33	288	0
STR	34	0	0
SI_	34	0	0	96	48	5
STR	34	0	5
SI_	34	0	5	96	48	2
STR	34	192	0
SI_	34	192	0	96	48	3
STR	35	0	1
SI_	35	0	1	96	48	5
STR	35	0	6
SCR	35	0	6	96	48	1
STR	35	192	2
SI_	35	192	2	96	48	5
STR	36	0	1
SI_	36	0	1	96	48	5
STR	36	192	6
SI_	36	192	6	96	48	2
STR	37	0	1
SCL	37	0	1	96	192	6
STR	37	0	5
SCL	37	0	5	96	192	2
HLD	38	0	5	96
TAP	38	96	6
HLD	38	192	2	96
TAP	38	288	1
HLD	39	0	6	96
TAP	39	96	5
HLD	39	192	1	96
TAP	39	288	2
HLD	40	0	7	96
TAP	40	96	4
HLD	40	192	0	96
TAP	40	288	3
TAP	41	0	0
TAP	41	0	6
TAP	41	96	1
TAP	41	96	7
TAP	41	192	0
TAP	41	216	7
TAP	41	240	0
TAP	41	336	0
TAP	42	0	2
HLD	42	0	7	96
TAP	42	96	2
HLD	42	192	0	96
TAP	42	192	3
TAP	42	288	3
HLD	43	0	1	96
TAP	43	0	4
TAP	43	96	4
HLD	43	192	2	96
TAP	43	192	5
TAP	43	288	5
TAP	44	0	7
TAP	44	96	5
TAP	44	192	3
TAP	44	240	1
TAP	44	336	6
TAP	45	48	4
TAP	45	144	2
BRK	45	192	0
STR	46	0	0
SCL	46	0	0	96	192	5
TAP	46	0	1
TAP	46	96	2
TAP	46	192	3
TAP	46	288	4
TAP	47	0	6
STR	47	0	7
SCR	47	0	7	96	192	2
TAP	47	96	5
TAP	47	192	4
TAP	47	288	3
STR	48	0	0
SCL	48	0	0	96	192	5
TAP	48	0	1
TAP	48	96	2
TAP	48	192	3
TAP	48	288	4
TAP	49	0	0
TAP	49	0	2
TAP	49	96	1
TAP	49	96	3
TAP	49	192	5
TAP	49	192	7
TAP	49	288	4
TAP	49	288	6
STR	50	0	3
SI_	50	0	3	96	192	0
TAP	50	0	4
TAP	50	96	5
TAP	50	192	6
TAP	50	288	7
TAP	51	0	3
STR	51	0	4
SI_	51	0	4	96	192	7
TAP	51	96	2
TAP	51	192	1
TAP	51	288	0
STR	52	0	0
SCL	52	0	0	96	192	5
STR	52	0	1
SCR	52	0	1	96	192	4
TAP	53	0	4
TAP	53	24	5
TAP	53	48	4
TAP	53	72	5
TAP	53	96	4
TAP	53	120	5
TAP	53	144	4
TAP	53	288	2
TAP	53	288	3
STR	54	0	2
SCL	54	0	2	96	72	7
HLD	54	0	5	288
STR	54	192	6
SCR	54	192	6	96	72	1
STR	55	0	2
SCL	55	0	2	96	72	7
HLD	55	0	4	288
STR	55	192	6
SCR	55	192	6	96	72	1
STR	56	0	2
SCL	56	0	2	96	72	7
HLD	56	0	5	288
STR	57	0	0
SI_	57	0	0	96	192	3
STR	57	0	7
SI_	57	0	7	96	192	4
HLD	58	0	2	288
STR	58	0	5
SCR	58	0	5	96	72	0
STR	58	192	1
SCL	58	192	1	96	72	6
HLD	59	0	3	288
STR	59	0	5
SCR	59	0	5	96	72	0
STR	59	192	1
SCL	59	192	1	96	72	6
HLD	60	0	2	288
STR	60	0	5
SCR	60	0	5	96	72	0
STR	61	0	2
SCL	61	0	2	96	192	7
STR	61	0	3
SCR	61	0	3	96	192	6
TAP	62	0	5
HLD	62	0	7	96
TAP	62	96	6
HLD	62	192	0	96
TAP	62	192	2
TAP	62	288	1
HLD	63	0	4	96
TAP	63	0	6
TAP	63	96	5
TAP	63	192	1
HLD	63	192	3	96
TAP	63	288	2
TAP	64	0	1
HLD	64	0	7	96
TAP	64	96	6
HLD	64	192	3	96
TAP	64	192	5
TAP	64	288	2
TAP	65	0	2
HLD	65	0	4	96
TAP	65	96	5
HLD	65	192	0	96
TAP	65	192	6
TAP	65	288	1
TAP	66	0	1
STR	66	0	5
SCR	66	0	5	96	192	0
TAP	66	96	2
TAP	66	192	3
TAP	66	288	4
STR	67	0	1
SCR	67	0	1	96	192	4
TAP	67	0	5
TAP	67	96	6
TAP	67	192	7
TAP	67	288	0
TAP	68	0	1
TAP	68	0	2
TAP	68	144	5
TAP	68	144	7
TAP	68	288	4
TAP	68	288	5
TAP	69	0	0
TAP	69	0	2
HLD	70	0	1	288
HLD	70	0	6	288
TAP	71	0	3
TAP	71	0	4
TAP	71	288	4
TAP	71	288	6
TAP	72	0	1
TAP	72	0	3
HLD	73	0	0	96
HLD	73	96	2	96
HLD	73	192	4	96
TAP	73	288	6
HLD	74	0	2	288
HLD	74	0	5	288
TAP	75	0	0
TAP	75	0	7
TAP	75	288	6
TAP	75	288	7
TAP	76	0	0
TAP	76	0	1
TAP	77	0	3
TAP	77	48	2
TAP	77	96	1
TAP	77	144	0
TAP	77	192	7
TAP	77	240	6
TAP	77	288	5
TAP	77	336	4
HLD	78	0	6	96
TAP	78	96	5
HLD	78	144	4	96
TAP	78	240	3
TAP	78	288	2
TAP	78	336	3
HLD	79	0	1	96
TAP	79	96	2
HLD	79	144	3	96
TAP	79	240	4
TAP	79	288	5
TAP	79	336	4
HLD	80	0	6	96
TAP	80	96	5
HLD	80	144	4	96
TAP	80	240	3
TAP	80	288	2
TAP	80	336	3
TAP	81	0	4
TAP	81	0	6
TAP	81	96	0
TAP	81	96	2
TAP	81	192	1
TAP	81	192	5
HLD	82	0	5	96
TAP	82	96	6
HLD	82	144	7	96
TAP	82	240	0
TAP	82	288	1
TAP	82	336	0
HLD	83	0	2	96
TAP	83	96	1
HLD	83	144	0	96
TAP	83	240	7
TAP	83	288	6
TAP	83	336	7
TAP	84	0	0
TAP	84	96	2
TAP	84	192	4
TAP	84	240	6
TAP	84	336	1
TAP	85	48	3
TAP	85	144	5
BRK	85	192	7
STR	86	0	3
SI_	86	0	3	96	192	0
TAP	86	0	7
TAP	86	96	6
TAP	86	192	5
TAP	86	288	4
TAP	87	0	0
STR	87	0	4
SI_	87	0	4	96	192	7
TAP	87	96	1
TAP	87	192	2
TAP	87	288	3
STR	88	0	3
SI_	88	0	3	96	192	0
TAP	88	0	7
TAP	88	96	6
TAP	88	192	5
TAP	88	288	4
TAP	89	0	0
STR	89	0	4
SI_	89	0	4	96	168	7
TAP	89	96	1
TAP	89	192	2
TAP	89	288	3
STR	90	0	5
SCL	90	0	5	96	192	2
TAP	90	0	6
TAP	90	96	7
TAP	90	192	0
TAP	90	288	1
STR	91	0	1
SCL	91	0	1	96	192	6
TAP	91	0	2
TAP	91	96	3
TAP	91	192	4
TAP	91	288	5
BRK	92	192	0
TAP	93	192	5
TAP	93	216	4
TAP	93	240	5
TAP	93	288	3
TAP	93	312	4
TAP	93	336	3
STR	94	0	1
SCR	94	0	1	96	72	4
TAP	94	0	7
TAP	94	96	7
STR	94	192	5
SCL	94	192	5	96	72	2
TAP	94	192	6
TAP	94	288	6
STR	95	0	1
SCR	95	0	1	96	72	4
TAP	95	0	7
TAP	95	96	7
STR	95	192	5
SCL	95	192	5	96	72	2
TAP	95	192	6
TAP	95	288	6
STR	96	0	1
SCR	96	0	1	96	72	4
TAP	96	0	7
TAP	96	96	7
TAP	96	192	6
TAP	96	288	6
STR	97	0	0
SI_	97	0	0	96	192	3
STR	97	0	7
SI_	97	0	7	96	192	4
TAP	98	0	0
STR	98	0	6
SCL	98	0	6	96	72	3
TAP	98	96	0
TAP	98	192	1
STR	98	192	2
SCR	98	192	2	96	72	5
TAP	98	288	1
TAP	99	0	0
STR	99	0	6
SCL	99	0	6	96	72	3
TAP	99	96	0
TAP	99	192	1
STR	99	192	2
SCR	99	192	2	96	72	5
TAP	99	288	1
TAP	100	0	0
STR	100	0	6
SCL	100	0	6	96	72	3
TAP	100	96	0
TAP	100	192	1
TAP	100	288	1
STR	101	0	6
SCL	101	0	6	96	192	3
STR	101	0	7
SCR	101	0	7	96	192	2
TAP	102	0	5
HLD	102	0	7	96
TAP	102	96	6
HLD	102	192	0	96
TAP	102	192	2
TAP	102	288	1
HLD	103	0	4	96
TAP	103	0	6
TAP	103	96	5
TAP	103	192	1
HLD	103	192	3	96
TAP	103	288	2
TAP	104	0	1
HLD	104	0	7	96
TAP	104	96	6
HLD	104	192	3	96
TAP	104	192	5
TAP	104	288	2
TAP	105	0	2
HLD	105	0	4	96
TAP	105	96	5
HLD	105	192	0	96
TAP	105	192	6
TAP	105	288	1
TAP	106	0	1
STR	106	0	5
SCR	106	0	5	96	192	0
TAP	106	96	2
TAP	106	192	3
TAP	106	288	4
STR	107	0	1
SCR	107	0	1	96	192	4
TAP	107	0	5
TAP	107	96	6
TAP	107	192	7
TAP	107	288	0
TAP	108	0	2
TAP	108	0	3
TAP	108	144	4
TAP	108	144	6
TAP	108	288	5
TAP	108	288	7
TAP	109	0	1
TAP	109	0	3
HLD	109	96	7	96
HLD	109	192	6	96
HLD	109	288	5	96
HLD	110	0	4	288
HLD	110	288	0	96
HLD	111	0	1	384
BRK	112	0	2
HLD	113	0	5	288
HLD	113	0	7	288
STR	114	0	2
SI_	114	0	2	96	576	5
STR	114	0	6
SI_	114	0	6	96	576	1
HLD	116	0	0	384
HLD	116	0	2	384
TAP	117	96	0
TAP	117	96	5
TAP	117	192	6
TAP	117	192	7
TAP	117	288	3
TAP	117	288	5
HLD	118	0	1	384
HLD	118	0	6	384
TAP	119	96	5
TAP	119	192	1
TAP	119	288	3
TAP	120	0	7
TAP	120	192	2
TAP	120	192	3
HLD	120	288	0	192
HLD	121	96	1	96
HLD	121	192	2	96
HLD	121	288	4	96
HLD	122	0	3	192
BRK	122	192	4
HLD	123	0	0	288
HLD	123	0	3	288
TAP	124	0	0
TAP	124	0	2
TAP	124	48	1
TAP	124	144	5
TAP	124	144	7
TAP	124	288	6
STR	125	0	0
SI_	125	0	0	96	1440	4
STR	129	0	6
SI_	129	0	6	96	48	2

T_REC_TAP	373
T_REC_BRK	9
T_REC_XTP	0
T_REC_HLD	92
T_REC_XHO	0
T_REC_STR	62
T_REC_BST	0
T_REC_XST	0
T_REC_TTP	0
T_REC_THO	0
T_REC_SLD	62
T_REC_ALL	598
T_NUM_TAP	435
T_NUM_BRK	9
T_NUM_HLD	92
T_NUM_SLD	62
T_NUM_ALL	598
T_JUDGE_TAP	444
T_JUDGE_HLD	143
T_JUDGE_SLD	62
T_JUDGE_ALL	649
TTM_EACHPAIRS	131
TTM_SCR_TAP	217500
TTM_SCR_BRK	23400
TTM_SCR_HLD	92000
TTM_SCR_SLD	93000
TTM_SCR_ALL	425900
TTM_SCR_S	412250
TTM_SCR_SS	425000
TTM_RAT_ACV	10021

