VERSION	0.00.00	1.03.00
FES_MODE	0
BPM_DEF	260.000	260.000	260.000	260.000
MET_DEF	4	4
RESOLUTION	384
CLK_DEF	384
COMPATIBLE_CODE	MA2

BPM	0	0	260.000
MET	0	0	4	4

TAP	6	0	1
TAP	6	0	6
TAP	6	288	0
TAP	6	288	2
TAP	7	0	1
TAP	7	0	3
TAP	7	288	4
TAP	7	288	6
TAP	8	0	5
TAP	8	0	7
TAP	8	288	2
TAP	8	288	5
TAP	9	0	3
TAP	9	0	4
TAP	10	0	1
TAP	10	0	6
TAP	10	288	5
TAP	10	288	7
TAP	11	0	4
TAP	11	0	6
TAP	11	288	1
TAP	11	288	3
TAP	12	0	0
TAP	12	0	2
TAP	12	288	0
TAP	12	288	7
TAP	13	0	1
TAP	13	0	5
TAP	13	144	2
TAP	13	144	6
TAP	13	288	0
TAP	13	288	4
TAP	14	0	7
TAP	14	96	6
TAP	14	192	7
TAP	14	288	6
TAP	15	0	5
TAP	15	96	4
TAP	15	192	5
TAP	15	288	4
TAP	16	0	3
TAP	16	96	2
TAP	16	192	3
TAP	16	288	2
TAP	17	0	1
TAP	17	96	0
TAP	17	192	1
TAP	17	288	0
TAP	18	0	7
TAP	18	96	0
TAP	18	192	1
TAP	18	288	2
TAP	19	0	3
TAP	19	96	4
TAP	19	192	5
TAP	19	288	6
TAP	20	0	7
TAP	20	96	6
TAP	20	192	5
TAP	20	288	4
TAP	21	0	1
TAP	21	96	2
TAP	21	192	1
TAP	21	288	0
TAP	22	0	0
TAP	22	0	7
TAP	22	96	6
TAP	22	192	5
TAP	22	288	6
TAP	23	0	0
TAP	23	96	1
TAP	23	192	6
TAP	23	288	1
TAP	23	288	6
TAP	24	0	2
TAP	24	96	3
TAP	24	192	4
TAP	24	288	5
TAP	25	0	4
STR	25	96	3
SI_	25	96	3	96	96	0
HLD	26	0	6	192
TAP	26	96	5
HLD	26	192	0	96
TAP	26	288	1
HLD	27	0	7	192
TAP	27	96	6
HLD	27	192	1	96
TAP	27	288	2
TAP	28	0	6
TAP	28	96	0
TAP	28	192	7
TAP	28	288	1
TAP	29	0	0
TAP	29	0	7
TAP	29	96	1
TAP	29	96	6
TAP	29	192	3
TAP	29	192	4
HLD	30	0	5	96
TAP	30	96	6
TAP	30	192	5
TAP	30	288	4
HLD	31	0	3	96
TAP	31	96	4
TAP	31	192	3
TAP	31	288	2
HLD	32	0	1	96
TAP	32	96	2
TAP	32	192	1
TAP	32	288	0
TAP	33	0	5
TAP	33	0	6
TAP	33	96	4
TAP	33	96	5
TAP	33	192	3
TAP	33	192	4
TAP	33	288	2
TAP	33	288	3
HLD	34	0	1	288
TAP	34	96	0
TAP	34	192	7
TAP	34	288	6
HLD	35	0	6	288
TAP	35	96	5
TAP	35	192	4
TAP	35	288	3
HLD	36	0	6	288
TAP	36	96	7
TAP	36	192	0
STR	36	288	1
SCL	36	288	1	96	192	6
TAP	38	0	7
TAP	38	96	0
TAP	38	192	1
TAP	38	288	2
TAP	39	0	1
TAP	39	96	0
TAP	39	192	7
TAP	39	240	6
TAP	39	288	7
TAP	40	0	0
TAP	40	0	7
TAP	40	96	1
TAP	40	192	2
TAP	40	288	1
TAP	41	0	0
TAP	41	0	7
TAP	41	96	6
TAP	41	96	7
TAP	41	192	5
TAP	41	192	6
TAP	42	0	0
HLD	42	0	7	288
TAP	42	96	1
TAP	42	192	2
TAP	42	288	3
HLD	43	0	3	288
TAP	43	0	7
TAP	43	96	6
TAP	43	192	5
TAP	43	288	4
HLD	44	0	0	576
BRK	45	288	1
BRK	45	288	6
HLD	46	0	5	96
TAP	46	96	6
TAP	46	192	5
TAP	46	288	4
HLD	47	0	3	96
TAP	47	96	4
TAP	47	192	3
TAP	47	288	2
HLD	48	0	1	96
TAP	48	96	2
TAP	48	192	1
TAP	48	288	0
TAP	49	0	6
TAP	49	0	7
TAP	49	96	0
TAP	49	96	1
TAP	49	192	1
TAP	49	192	2
TAP	49	288	0
TAP	49	288	1
TAP	50	0	7
TAP	50	96	6
HLD	50	144	5	144
TAP	50	288	6
TAP	51	0	1
TAP	51	96	2
HLD	51	144	3	144
TAP	51	288	2
HLD	52	0	1	192
HLD	52	192	0	192
HLD	53	0	7	192
BRK	53	192	6
TAP	54	0	0
TAP	54	96	0
TAP	54	96	1
TAP	54	192	0
TAP	54	288	0
TAP	54	288	1
TAP	55	0	2
TAP	55	96	2
TAP	55	96	3
TAP	55	192	2
TAP	55	288	2
TAP	55	288	3
TAP	56	0	1
TAP	56	96	0
TAP	56	96	1
TAP	56	192	2
TAP	56	288	2
TAP	56	288	3
TAP	57	0	1
TAP	57	96	0
TAP	57	96	1
TAP	57	192	7
TAP	57	288	6
TAP	57	288	7
TAP	58	0	0
TAP	58	48	1
TAP	58	96	0
TAP	58	144	1
TAP	58	192	7
TAP	58	240	0
TAP	58	288	7
TAP	58	336	0
TAP	59	0	6
TAP	59	48	7
TAP	59	96	6
TAP	59	144	7
TAP	59	192	5
TAP	59	240	6
TAP	59	288	5
TAP	59	336	6
TAP	60	0	7
TAP	60	96	0
TAP	60	96	7
TAP	60	192	1
TAP	60	288	1
TAP	60	288	2
BRK	61	0	0
TAP	61	0	7
TAP	61	96	6
BRK	61	96	7
TAP	61	192	5
BRK	61	192	6
TAP	62	0	7
TAP	62	96	0
TAP	62	96	7
TAP	62	192	1
TAP	62	288	1
TAP	62	288	2
TAP	63	0	0
TAP	63	96	0
TAP	63	96	7
TAP	63	192	6
TAP	63	288	5
TAP	63	288	6
TAP	64	0	7
TAP	64	96	0
TAP	64	96	7
TAP	64	192	1
TAP	64	288	1
TAP	64	288	2
TAP	65	0	3
TAP	65	96	3
TAP	65	96	4
TAP	65	192	5
TAP	65	288	5
TAP	65	288	6
TAP	66	0	0
TAP	66	48	7
TAP	66	96	0
TAP	66	144	7
TAP	66	192	0
TAP	66	288	6
TAP	66	336	7
TAP	67	0	6
TAP	67	48	7
TAP	67	96	6
TAP	67	192	0
TAP	67	288	1
TAP	68	0	0
TAP	68	0	6
TAP	68	144	1
TAP	68	144	7
TAP	68	288	0
TAP	68	288	4
HLD	69	0	3	288
HLD	69	0	5	288
HLD	70	0	6	384
HLD	71	0	2	384
HLD	72	0	4	384
HLD	73	0	3	384
HLD	74	0	4	384
HLD	75	0	1	384
HLD	76	0	7	384
TAP	77	0	0
TAP	77	96	1
TAP	77	192	2
TAP	77	288	1
TAP	78	0	0
TAP	78	0	7
TAP	78	96	6
TAP	78	192	5
TAP	78	288	6
TAP	79	0	0
TAP	79	96	1
TAP	79	192	6
TAP	79	288	1
TAP	79	288	6
TAP	80	0	2
TAP	80	96	3
TAP	80	192	4
TAP	80	288	5
TAP	81	0	4
STR	81	96	3
SI_	81	96	3	96	96	0
HLD	82	0	6	192
TAP	82	96	5
HLD	82	192	0	96
TAP	82	288	1
HLD	83	0	7	192
TAP	83	96	6
HLD	83	192	1	96
TAP	83	288	2
HLD	84	0	6	576
BRK	85	288	0
BRK	85	288	7
HLD	86	0	5	96
TAP	86	96	6
TAP	86	192	5
TAP	86	288	4
HLD	87	0	3	96
TAP	87	96	4
TAP	87	192	3
TAP	87	288	2
HLD	88	0	1	96
TAP	88	96	2
TAP	88	192	1
TAP	88	288	0
TAP	89	0	6
TAP	89	0	7
TAP	89	96	0
TAP	89	96	1
TAP	89	192	1
TAP	89	192	2
TAP	89	288	0
TAP	89	288	1
TAP	90	0	7
TAP	90	96	6
HLD	90	144	5	144
TAP	90	288	6
TAP	91	0	1
TAP	91	96	2
HLD	91	144	3	144
TAP	91	288	2
HLD	92	0	1	192
HLD	92	192	0	192
HLD	93	0	7	192
BRK	93	192	6
TAP	94	0	0
TAP	94	96	0
TAP	94	96	1
TAP	94	192	0
TAP	94	288	0
TAP	94	288	1
TAP	95	0	2
TAP	95	96	2
TAP	95	96	3
TAP	95	192	2
TAP	95	288	2
TAP	95	288	3
TAP	96	0	1
TAP	96	96	0
TAP	96	96	1
TAP	96	192	2
TAP	96	288	2
TAP	96	288	3
TAP	97	0	1
TAP	97	96	0
TAP	97	96	1
TAP	97	192	7
TAP	97	288	6
TAP	97	288	7
TAP	98	0	0
TAP	98	48	1
TAP	98	96	0
TAP	98	144	1
TAP	98	192	7
TAP	98	240	0
TAP	98	288	7
TAP	98	336	0
TAP	99	0	6
TAP	99	48	7
TAP	99	96	6
TAP	99	144	7
TAP	99	192	5
TAP	99	240	6
TAP	99	288	5
TAP	99	336	6
TAP	100	0	7
TAP	100	96	0
TAP	100	96	7
TAP	100	192	1
TAP	100	288	1
TAP	100	288	2
BRK	101	0	0
TAP	101	0	7
TAP	101	96	6
BRK	101	96	7
TAP	101	192	5
BRK	101	192	6
TAP	102	0	7
TAP	102	96	0
TAP	102	96	7
TAP	102	192	1
TAP	102	288	1
TAP	102	288	2
TAP	103	0	0
TAP	103	96	0
TAP	103	96	7
TAP	103	192	6
TAP	103	288	5
TAP	103	288	6
TAP	104	0	7
TAP	104	96	0
TAP	104	96	7
TAP	104	192	1
TAP	104	288	1
TAP	104	288	2
TAP	105	0	3
TAP	105	96	3
TAP	105	96	4
TAP	105	192	5
TAP	105	288	5
TAP	105	288	6
TAP	106	0	0
TAP	106	48	7
TAP	106	96	0
TAP	106	144	7
TAP	106	192	0
TAP	106	288	6
TAP	106	336	7
TAP	107	0	6
TAP	107	48	7
TAP	107	96	6
TAP	107	192	0
TAP	107	288	1
TAP	108	0	0
TAP	108	0	6
TAP	108	144	1
TAP	108	144	7
TAP	108	288	0
TAP	108	288	4
HLD	109	0	3	288
HLD	109	0	5	288
TAP	110	0	0
TAP	110	288	0
TAP	111	0	1
HLD	112	0	0	384
HLD	114	0	0	576
HLD	116	0	7	384
TAP	117	96	7
TAP	117	192	6
TAP	117	288	5
HLD	118	0	0	384
TAP	119	96	0
TAP	119	192	1
TAP	119	288	2
TAP	120	0	2
TAP	120	192	6
TAP	120	288	6
TAP	121	96	0
TAP	121	192	0
TAP	121	288	1
TAP	122	0	2
HLD	122	192	0	192
HLD	123	0	7	384
HLD	124	0	0	192
HLD	124	192	1	192
HLD	125	0	0	1536

T_REC_TAP	413
T_REC_BRK	12
T_REC_XTP	0
T_REC_HLD	54
T_REC_XHO	0
T_REC_STR	3
T_REC_BST	0
T_REC_XST	0
T_REC_TTP	0
T_REC_THO	0
T_REC_SLD	3
T_REC_ALL	485
T_NUM_TAP	416
T_NUM_BRK	12
T_NUM_HLD	54
T_NUM_SLD	3
T_NUM_ALL	485
T_JUDGE_TAP	428
T_JUDGE_HLD	152
T_JUDGE_SLD	3
T_JUDGE_ALL	583
TTM_EACHPAIRS	93
TTM_SCR_TAP	208000
TTM_SCR_BRK	31200
TTM_SCR_HLD	54000
TTM_SCR_SLD	4500
TTM_SCR_ALL	297700
TTM_SCR_S	287650
TTM_SCR_SS	296500
TTM_RAT_ACV	10040

