VERSION	0.00.00	1.03.00
FES_MODE	0
BPM_DEF	260.000	260.000	260.000	260.000
MET_DEF	4	4
RESOLUTION	384
CLK_DEF	384
COMPATIBLE_CODE	MA2

BPM	0	0	260.000
MET	0	0	4	4

HLD	6	0	0	192
TAP	6	288	0
HLD	7	0	1	192
TAP	7	288	1
HLD	8	0	2	192
TAP	8	288	1
HLD	9	0	0	192
HLD	9	192	7	192
HLD	10	0	6	192
TAP	10	288	6
HLD	11	0	5	192
TAP	11	288	5
HLD	12	0	4	192
TAP	12	288	4
HLD	13	0	5	288
TAP	13	144	6
TAP	13	288	6
TAP	14	0	5
TAP	14	192	4
TAP	15	0	3
TAP	15	192	2
TAP	16	0	3
TAP	16	192	4
TAP	17	0	5
TAP	17	192	6
TAP	18	0	6
TAP	18	192	5
TAP	19	0	4
TAP	19	192	3
TAP	20	0	2
TAP	20	192	1
HLD	21	0	0	288
TAP	22	0	1
TAP	22	96	2
TAP	22	192	3
TAP	22	288	4
TAP	23	0	3
TAP	23	96	2
TAP	23	192	2
TAP	24	0	3
TAP	24	96	4
TAP	24	192	5
TAP	24	288	6
TAP	25	0	7
TAP	25	96	0
HLD	25	192	0	96
TAP	26	0	7
TAP	26	96	7
TAP	26	192	6
TAP	26	288	6
TAP	27	0	5
TAP	27	96	5
TAP	27	192	4
TAP	27	288	4
TAP	28	0	5
TAP	28	96	6
TAP	28	192	7
TAP	28	288	0
TAP	29	0	0
TAP	29	0	1
TAP	29	96	0
TAP	29	96	7
TAP	29	192	0
TAP	29	192	7
TAP	30	0	7
TAP	30	96	6
TAP	30	192	5
TAP	30	288	6
TAP	30	288	7
TAP	31	0	0
TAP	31	96	1
TAP	31	192	2
TAP	31	288	0
TAP	31	288	1
TAP	32	0	7
TAP	32	96	7
TAP	32	192	6
TAP	32	288	6
TAP	33	0	7
TAP	33	96	0
TAP	33	96	7
TAP	33	192	0
TAP	33	288	0
TAP	33	288	1
HLD	34	0	2	288
HLD	35	0	3	288
STR	36	0	0
SI_	36	0	0	96	288	5
STR	36	0	1
SI_	36	0	1	96	288	4
TAP	38	0	3
TAP	38	96	3
TAP	38	192	2
TAP	38	288	2
TAP	39	0	3
TAP	39	96	4
TAP	39	192	5
TAP	40	0	4
TAP	40	96	4
TAP	40	192	3
TAP	40	288	3
TAP	41	0	4
TAP	41	96	4
TAP	41	96	5
TAP	41	192	5
TAP	41	192	6
TAP	42	0	3
TAP	42	96	3
TAP	42	192	2
TAP	42	288	2
TAP	43	0	1
TAP	43	96	1
TAP	43	192	0
TAP	43	288	0
HLD	44	0	7	576
BRK	45	288	7
TAP	46	0	0
TAP	46	96	1
TAP	46	192	2
TAP	46	288	1
TAP	47	0	0
TAP	47	96	7
TAP	47	192	6
TAP	47	288	5
TAP	48	0	6
TAP	48	96	7
TAP	48	192	0
TAP	48	288	1
TAP	49	0	0
TAP	49	96	7
TAP	49	192	6
TAP	49	288	0
TAP	49	288	7
STR	50	0	1
SI_	50	0	1	96	192	4
STR	51	0	6
SI_	51	0	6	96	192	3
HLD	52	0	0	576
BRK	53	288	0
TAP	54	0	1
TAP	54	96	1
TAP	54	192	2
TAP	54	288	2
TAP	55	0	1
TAP	55	96	1
TAP	55	192	0
TAP	55	288	0
TAP	56	0	7
TAP	56	96	7
TAP	56	192	6
TAP	56	288	6
TAP	57	0	5
TAP	57	96	5
TAP	57	192	4
TAP	57	288	4
TAP	58	0	3
TAP	58	96	3
TAP	58	192	4
TAP	58	288	4
TAP	59	0	2
TAP	59	96	2
TAP	59	192	6
TAP	59	288	6
TAP	60	0	0
TAP	60	96	0
TAP	60	192	7
TAP	60	288	7
TAP	61	0	0
TAP	61	0	1
TAP	61	96	1
TAP	61	96	2
TAP	61	192	0
TAP	61	192	1
TAP	62	0	7
TAP	62	96	7
TAP	62	192	6
TAP	62	288	6
TAP	63	0	5
TAP	63	96	5
TAP	63	192	4
TAP	63	288	4
TAP	64	0	3
TAP	64	96	3
TAP	64	192	2
TAP	64	288	2
TAP	65	0	1
TAP	65	96	1
TAP	65	192	0
TAP	65	288	0
TAP	66	0	7
TAP	66	96	7
TAP	66	192	6
TAP	66	288	7
TAP	67	0	7
TAP	67	96	0
TAP	67	192	1
TAP	67	288	1
HLD	68	0	2	384
HLD	70	0	4	384
HLD	71	0	1	384
HLD	72	0	7	384
BRK	73	0	0
HLD	74	0	0	384
HLD	75	0	2	384
HLD	76	0	4	384
STR	77	0	6
SI_	77	0	6	96	192	2
TAP	78	0	1
TAP	78	96	2
TAP	78	192	3
TAP	78	288	4
TAP	79	0	3
TAP	79	96	2
TAP	79	192	2
TAP	80	0	3
TAP	80	96	4
TAP	80	192	5
TAP	80	288	6
TAP	81	0	7
TAP	81	96	0
HLD	81	192	0	96
TAP	82	0	7
TAP	82	96	7
TAP	82	192	6
TAP	82	288	6
TAP	83	0	5
TAP	83	96	5
TAP	83	192	4
TAP	83	288	4
HLD	84	0	3	576
BRK	85	288	3
TAP	86	0	4
TAP	86	96	5
TAP	86	192	6
TAP	86	288	4
TAP	86	288	5
TAP	87	0	3
TAP	87	96	2
TAP	87	192	1
TAP	87	288	2
TAP	87	288	3
TAP	88	0	4
TAP	88	96	4
TAP	88	192	5
TAP	88	288	5
TAP	89	0	4
TAP	89	96	3
TAP	89	192	1
TAP	89	192	2
TAP	89	288	0
TAP	89	288	1
HLD	90	0	2	288
HLD	91	0	3	288
STR	92	0	1
SI_	92	0	1	96	288	6
STR	92	0	2
SI_	92	0	2	96	288	5
BRK	93	288	6
BRK	93	288	7
TAP	94	0	0
TAP	94	96	0
TAP	94	192	1
TAP	94	288	1
TAP	95	0	0
TAP	95	96	0
TAP	95	192	7
TAP	95	288	7
TAP	96	0	6
TAP	96	96	6
TAP	96	192	5
TAP	96	288	5
TAP	97	0	4
TAP	97	96	4
TAP	97	192	5
TAP	97	288	5
TAP	98	0	6
TAP	98	96	6
TAP	98	192	7
TAP	98	288	7
TAP	99	0	0
TAP	99	96	0
TAP	99	192	1
TAP	99	288	1
TAP	100	0	0
TAP	100	96	0
TAP	100	192	7
TAP	100	288	7
TAP	101	0	6
TAP	101	0	7
TAP	101	96	5
TAP	101	96	6
TAP	101	192	6
TAP	101	192	7
TAP	102	0	0
TAP	102	96	0
TAP	102	192	1
TAP	102	288	1
TAP	103	0	2
TAP	103	96	2
TAP	103	192	3
TAP	103	288	3
TAP	104	0	4
TAP	104	96	4
TAP	104	192	5
TAP	104	288	5
TAP	105	0	6
TAP	105	96	6
TAP	105	192	7
TAP	105	288	7
TAP	106	0	0
TAP	106	96	0
TAP	106	192	1
TAP	106	288	0
TAP	107	0	0
TAP	107	96	7
TAP	107	192	6
TAP	107	288	6
HLD	108	0	5	384
STR	110	0	3
SI_	110	0	3	96	192	7
HLD	112	0	0	384
HLD	114	0	0	768
HLD	116	0	7	384
TAP	117	96	0
TAP	117	192	7
TAP	117	288	6
HLD	118	0	0	480
STR	120	0	0
SCL	120	0	0	96	480	5
HLD	122	192	0	192
HLD	123	0	7	384
HLD	124	0	0	288
TAP	124	288	7
HLD	125	0	0	1536

T_REC_TAP	275
T_REC_BRK	6
T_REC_XTP	0
T_REC_HLD	35
T_REC_XHO	0
T_REC_STR	9
T_REC_BST	0
T_REC_XST	0
T_REC_TTP	0
T_REC_THO	0
T_REC_SLD	9
T_REC_ALL	334
T_NUM_TAP	284
T_NUM_BRK	6
T_NUM_HLD	35
T_NUM_SLD	9
T_NUM_ALL	334
T_JUDGE_TAP	290
T_JUDGE_HLD	132
T_JUDGE_SLD	9
T_JUDGE_ALL	431
TTM_EACHPAIRS	23
TTM_SCR_TAP	142000
TTM_SCR_BRK	15600
TTM_SCR_HLD	35000
TTM_SCR_SLD	13500
TTM_SCR_ALL	206100
TTM_SCR_S	199350
TTM_SCR_SS	205500
TTM_RAT_ACV	10029

