VERSION	0.00.00	1.03.00
FES_MODE	0
BPM_DEF	260.000	260.000	260.000	260.000
MET_DEF	4	4
RESOLUTION	384
CLK_DEF	384
COMPATIBLE_CODE	MA2

BPM	0	0	260.000
MET	0	0	4	4

HLD	5	0	0	192
TAP	6	0	1
TAP	7	0	0
TAP	8	0	7
TAP	9	0	6
TAP	9	192	6
TAP	10	0	5
TAP	11	0	4
TAP	12	0	3
TAP	13	0	2
TAP	14	0	1
TAP	14	192	1
TAP	15	0	0
TAP	15	192	0
TAP	16	0	7
TAP	16	192	7
TAP	17	0	6
TAP	17	192	6
TAP	18	0	6
TAP	18	0	7
TAP	18	192	6
TAP	18	192	7
TAP	19	0	0
TAP	19	0	7
TAP	19	192	0
TAP	19	192	7
TAP	20	0	0
TAP	20	0	1
TAP	20	192	0
TAP	20	192	1
TAP	22	0	0
TAP	22	192	0
TAP	23	0	1
TAP	23	192	1
TAP	24	0	0
TAP	24	192	0
HLD	25	0	1	192
TAP	26	0	5
TAP	26	192	5
TAP	27	0	4
TAP	27	192	4
TAP	28	0	5
TAP	28	192	5
HLD	29	0	4	192
TAP	30	0	2
TAP	30	192	2
TAP	31	0	3
TAP	31	192	3
TAP	32	0	4
TAP	32	192	4
TAP	33	0	5
TAP	33	96	5
TAP	33	192	5
TAP	34	0	6
TAP	34	192	6
TAP	35	0	7
TAP	35	192	7
STR	36	0	6
SI_	36	0	6	96	288	3
TAP	38	0	3
TAP	38	192	3
TAP	39	0	2
TAP	39	192	2
TAP	40	0	1
TAP	40	192	1
TAP	41	0	1
TAP	41	96	1
TAP	41	192	1
TAP	42	0	0
TAP	42	192	0
TAP	43	0	7
TAP	43	192	7
HLD	44	0	7	192
HLD	45	0	6	192
TAP	46	0	5
TAP	46	192	5
TAP	47	0	4
TAP	47	192	4
TAP	48	0	3
TAP	48	192	3
TAP	49	0	2
TAP	49	96	2
TAP	49	192	1
TAP	49	288	1
TAP	50	0	2
TAP	50	192	2
TAP	51	0	3
TAP	51	192	3
HLD	52	0	4	192
HLD	53	0	5	192
TAP	54	0	6
TAP	54	192	6
TAP	55	0	7
TAP	55	192	7
TAP	56	0	0
TAP	56	192	0
TAP	57	0	1
TAP	57	192	1
TAP	58	0	0
TAP	58	192	0
TAP	59	0	7
TAP	59	192	7
TAP	60	0	6
TAP	60	192	6
TAP	61	0	5
TAP	61	96	5
TAP	61	192	5
TAP	62	0	6
TAP	62	0	7
TAP	62	192	6
TAP	62	192	7
TAP	63	0	0
TAP	63	0	7
TAP	63	192	0
TAP	63	192	7
TAP	64	0	0
TAP	64	0	1
TAP	64	192	0
TAP	64	192	1
TAP	65	0	1
TAP	65	0	2
TAP	65	192	1
TAP	65	192	2
TAP	66	0	0
TAP	66	192	0
TAP	67	0	7
TAP	67	192	7
HLD	68	0	6	384
HLD	70	0	0	384
HLD	72	0	1	384
HLD	74	0	7	384
HLD	76	0	6	384
TAP	78	0	7
TAP	78	192	7
TAP	79	0	1
TAP	79	192	1
TAP	80	0	7
TAP	80	192	7
HLD	81	0	6	192
TAP	82	0	5
TAP	82	192	5
TAP	83	0	3
TAP	83	192	3
HLD	84	0	7	672
TAP	86	0	7
TAP	86	192	7
TAP	87	0	6
TAP	87	192	6
TAP	88	0	5
TAP	88	192	5
TAP	89	0	6
TAP	89	96	6
TAP	89	192	6
TAP	90	0	7
TAP	90	192	7
TAP	91	0	0
TAP	91	192	0
STR	92	0	1
SI_	92	0	1	96	288	6
TAP	94	0	7
TAP	94	96	7
TAP	95	0	0
TAP	95	96	0
TAP	96	0	1
TAP	96	96	1
HLD	97	0	0	192
TAP	97	192	7
TAP	98	0	6
TAP	98	96	6
TAP	99	0	5
TAP	99	96	5
TAP	100	0	6
TAP	100	96	6
TAP	101	0	7
TAP	101	96	7
BRK	101	192	7
TAP	102	0	0
TAP	102	192	0
TAP	102	192	1
TAP	103	0	7
TAP	103	192	6
TAP	103	192	7
TAP	104	0	5
TAP	104	192	4
TAP	104	192	5
TAP	105	0	3
TAP	105	192	2
TAP	105	192	3
TAP	106	0	4
TAP	106	96	4
TAP	106	192	5
TAP	107	0	4
TAP	107	96	4
TAP	107	192	3
HLD	108	0	2	384
TAP	110	0	0
TAP	111	0	2
HLD	112	0	0	384
HLD	114	0	7	768
HLD	118	0	0	480
TAP	120	0	0
TAP	122	0	1
HLD	122	192	2	192
HLD	124	0	1	288
HLD	125	0	0	1536
HLD	125	0	7	1536

T_REC_TAP	178
T_REC_BRK	1
T_REC_XTP	0
T_REC_HLD	23
T_REC_XHO	0
T_REC_STR	2
T_REC_BST	0
T_REC_XST	0
T_REC_TTP	0
T_REC_THO	0
T_REC_SLD	2
T_REC_ALL	206
T_NUM_TAP	180
T_NUM_BRK	1
T_NUM_HLD	23
T_NUM_SLD	2
T_NUM_ALL	206
T_JUDGE_TAP	181
T_JUDGE_HLD	103
T_JUDGE_SLD	2
T_JUDGE_ALL	286
TTM_EACHPAIRS	19
TTM_SCR_TAP	90000
TTM_SCR_BRK	2600
TTM_SCR_HLD	23000
TTM_SCR_SLD	3000
TTM_SCR_ALL	118600
TTM_SCR_S	114950
TTM_SCR_SS	118500
TTM_RAT_ACV	10008

