VERSION	0.00.00	1.03.00
FES_MODE	0
BPM_DEF	125.000	125.000	125.000	125.000
MET_DEF	4	4
RESOLUTION	384
CLK_DEF	384
COMPATIBLE_CODE	MA2

BPM	0	0	125.000
MET	0	0	4	4

HLD	2	0	6	672
STR	2	96	0
SI_	2	96	0	96	96	3
TAP	3	0	2
STR	3	96	7
SI_	3	96	7	96	96	4
HLD	4	0	2	576
STR	4	96	7
SI_	4	96	7	96	96	4
TAP	5	0	3
STR	5	96	0
SI_	5	96	0	96	96	3
TAP	5	240	1
BRK	5	288	1
HLD	6	0	0	672
STR	6	96	1
SI_	6	96	1	96	96	4
TAP	7	0	6
STR	7	96	7
SI_	7	96	7	96	96	3
HLD	8	0	4	576
STR	8	96	6
SI_	8	96	6	96	96	1
TAP	9	0	2
STR	9	96	0
SCR	9	96	0	96	48	3
TAP	9	240	6
BRK	9	288	1
TAP	10	0	0
TAP	10	96	2
STR	10	192	1
SI_	10	192	1	96	48	6
STR	11	0	7
SI_	11	0	7	96	48	4
TAP	11	48	1
TAP	11	96	2
TAP	11	144	3
STR	11	192	0
SI_	11	192	0	96	48	3
TAP	11	288	4
TAP	12	0	6
TAP	12	96	0
TAP	12	192	4
STR	12	288	7
SI_	12	288	7	96	96	3
TAP	12	336	6
TAP	13	0	5
TAP	13	48	4
TAP	13	96	2
TAP	13	144	1
STR	13	192	0
SI_	13	192	0	96	48	4
BRK	13	288	3
TAP	14	0	1
TAP	14	0	6
TAP	14	96	1
TAP	14	96	6
STR	14	192	1
SI_	14	192	1	96	48	4
STR	14	192	6
SI_	14	192	6	96	48	3
TAP	15	0	1
TAP	15	48	1
STR	15	96	1
SI_	15	96	1	96	24	5
TAP	15	144	6
TAP	15	192	6
TAP	15	288	3
TAP	15	288	4
STR	16	0	0
SI_	16	0	0	96	24	5
STR	16	48	7
SI_	16	48	7	96	24	2
STR	16	192	3
SI_	16	192	3	96	24	6
STR	16	240	4
SI_	16	240	4	96	24	1
TAP	17	0	0
TAP	17	0	7
TAP	17	96	2
TAP	17	96	5
TAP	17	192	1
TAP	17	192	6
TAP	17	288	3
TAP	17	288	4
STR	18	0	0
SCR	18	0	0	96	48	3
STR	18	96	7
SCL	18	96	7	96	48	4
TAP	18	336	2
TAP	19	0	5
TAP	19	48	3
TAP	19	96	4
TAP	19	144	5
TAP	19	192	2
TAP	19	288	2
TAP	19	288	5
TAP	19	336	3
TAP	19	336	4
TAP	20	96	1
TAP	20	192	3
TAP	20	288	5
TAP	21	0	1
TAP	21	48	0
TAP	21	96	7
TAP	21	144	6
TAP	21	192	5
TAP	21	240	6
TAP	21	288	7
TAP	21	336	0
STR	22	0	7
SCL	22	0	7	96	48	4
STR	22	96	0
SCR	22	96	0	96	48	3
TAP	22	336	1
TAP	23	0	6
TAP	23	48	0
TAP	23	96	7
TAP	23	144	6
TAP	23	192	1
TAP	23	288	1
TAP	23	288	6
BRK	23	336	0
BRK	23	336	7
TAP	24	96	0
TAP	24	192	2
TAP	24	288	4
TAP	25	0	6
TAP	25	96	0
STR	25	192	7
SCL	25	192	7	96	48	4
HLD	26	0	0	240
TAP	26	96	2
TAP	26	192	5
HLD	26	288	6	288
TAP	27	0	1
TAP	27	48	2
TAP	27	96	3
TAP	27	144	2
TAP	27	192	1
HLD	27	288	2	384
TAP	28	0	1
TAP	28	96	0
TAP	28	192	7
TAP	28	288	6
HLD	29	0	5	96
TAP	29	48	1
HLD	29	96	4	96
TAP	29	144	3
HLD	29	192	3	96
TAP	29	240	5
HLD	30	0	7	240
TAP	30	96	6
TAP	30	192	1
HLD	30	288	2	288
TAP	31	0	4
TAP	31	48	5
TAP	31	96	6
TAP	31	144	5
TAP	31	192	4
HLD	31	288	0	384
TAP	32	0	2
TAP	32	96	5
TAP	32	192	3
TAP	32	288	7
HLD	33	0	1	96
TAP	33	48	0
HLD	33	96	3	96
TAP	33	144	2
HLD	33	192	5	96
TAP	33	240	4
HLD	33	288	7	96
TAP	33	336	6
HLD	34	0	0	384
TAP	34	96	3
TAP	34	192	4
TAP	34	288	5
HLD	35	0	4	384
TAP	35	96	1
TAP	35	192	0
TAP	35	288	7
HLD	36	0	6	384
TAP	36	96	1
STR	36	192	1
SI_	36	192	1	96	48	4
HLD	37	0	3	384
TAP	37	96	5
STR	37	192	7
SI_	37	192	7	96	48	2
HLD	38	0	0	384
TAP	38	96	1
TAP	38	192	2
TAP	38	288	3
HLD	39	0	7	384
TAP	39	96	6
TAP	39	192	5
TAP	39	288	4
STR	40	0	0
SI_	40	0	0	96	48	4
STR	40	192	6
SI_	40	192	6	96	48	2
TAP	41	0	2
TAP	41	0	6
TAP	41	96	0
TAP	41	96	4
STR	41	192	1
SI_	41	192	1	96	48	6
STR	41	192	5
SI_	41	192	5	96	48	2
TAP	42	0	0
TAP	42	0	4
TAP	42	96	2
TAP	42	96	5
TAP	42	192	1
TAP	42	192	3
TAP	42	288	4
TAP	42	288	7
STR	43	0	0
SI_	43	0	0	96	48	3
TAP	43	48	1
TAP	43	96	2
TAP	43	144	6
STR	43	192	7
SI_	43	192	7	96	48	4
BRK	43	288	3
TAP	44	0	6
TAP	44	96	4
TAP	44	192	0
STR	44	288	1
SI_	44	288	1	96	96	4
TAP	44	336	2
TAP	45	0	3
TAP	45	48	5
TAP	45	96	3
TAP	45	144	4
STR	45	192	7
SI_	45	192	7	96	48	2
BRK	45	288	5
TAP	46	0	1
TAP	46	0	6
TAP	46	96	1
TAP	46	96	6
STR	46	192	1
SI_	46	192	1	96	48	4
STR	46	192	6
SI_	46	192	6	96	48	3
TAP	47	0	7
TAP	47	48	5
STR	47	96	6
SI_	47	96	6	96	48	2
TAP	47	144	1
TAP	47	192	3
TAP	47	288	0
TAP	47	288	1
STR	48	0	0
SI_	48	0	0	96	48	4
STR	48	48	7
SI_	48	48	7	96	48	3
STR	48	192	0
SI_	48	192	0	96	48	3
STR	48	240	6
SI_	48	240	6	96	48	1
TAP	49	0	6
STR	49	96	2
SI_	49	96	2	96	96	5
TAP	49	288	1
STR	50	0	0
SCR	50	0	0	96	48	3
STR	50	96	7
SCL	50	96	7	96	48	4
TAP	50	336	2
TAP	51	0	5
TAP	51	48	3
TAP	51	96	4
TAP	51	144	5
TAP	51	192	2
TAP	51	288	2
TAP	51	288	5
TAP	51	336	3
TAP	51	336	4
TAP	52	96	1
TAP	52	192	3
TAP	52	288	5
TAP	53	0	1
TAP	53	48	0
TAP	53	96	7
TAP	53	144	6
TAP	53	192	5
TAP	53	240	6
TAP	53	288	7
TAP	53	336	0
STR	54	0	0
SCR	54	0	0	96	48	3
STR	54	96	7
SCL	54	96	7	96	48	4
TAP	54	336	2
TAP	55	0	5
TAP	55	48	3
TAP	55	96	4
TAP	55	144	5
TAP	55	192	2
TAP	55	288	2
TAP	55	288	5
TAP	55	336	3
TAP	55	336	4
HLD	56	0	1	192
HLD	56	192	0	192
HLD	57	0	7	288

T_REC_TAP	181
T_REC_BRK	7
T_REC_XTP	0
T_REC_HLD	26
T_REC_XHO	0
T_REC_STR	47
T_REC_BST	0
T_REC_XST	0
T_REC_TTP	0
T_REC_THO	0
T_REC_SLD	47
T_REC_ALL	308
T_NUM_TAP	228
T_NUM_BRK	7
T_NUM_HLD	26
T_NUM_SLD	47
T_NUM_ALL	308
T_JUDGE_TAP	235
T_JUDGE_HLD	166
T_JUDGE_SLD	47
T_JUDGE_ALL	448
TTM_EACHPAIRS	27
TTM_SCR_TAP	114000
TTM_SCR_BRK	18200
TTM_SCR_HLD	26000
TTM_SCR_SLD	70500
TTM_SCR_ALL	228700
TTM_SCR_S	221200
TTM_SCR_SS	228000
TTM_RAT_ACV	10030

