VERSION	0.00.00	1.03.00
FES_MODE	0
BPM_DEF	125.000	125.000	125.000	125.000
MET_DEF	4	4
RESOLUTION	384
CLK_DEF	384
COMPATIBLE_CODE	MA2

BPM	0	0	125.000
MET	0	0	4	4

TAP	2	0	5
TAP	2	96	1
TAP	2	192	2
TAP	2	192	3
TAP	2	288	4
TAP	2	288	5
HLD	3	0	6	96
HLD	3	96	1	96
HLD	3	192	3	96
TAP	3	288	0
TAP	4	0	4
TAP	4	0	5
TAP	4	96	2
TAP	4	96	3
TAP	4	192	5
TAP	4	240	2
TAP	4	288	5
TAP	5	0	3
TAP	5	48	4
TAP	5	96	3
TAP	5	144	4
TAP	5	192	3
TAP	5	240	1
TAP	5	288	1
TAP	6	0	5
TAP	6	96	1
TAP	6	192	2
TAP	6	192	3
TAP	6	288	4
TAP	6	288	5
HLD	7	0	6	96
HLD	7	96	1	96
HLD	7	192	3	96
TAP	7	288	0
TAP	8	0	4
TAP	8	0	5
TAP	8	96	2
TAP	8	96	3
TAP	8	192	5
TAP	8	240	2
TAP	8	288	5
TAP	9	0	3
TAP	9	48	4
TAP	9	96	3
TAP	9	144	4
TAP	9	192	3
TAP	9	240	1
TAP	9	288	1
TAP	10	0	0
TAP	10	96	0
TAP	10	192	5
TAP	10	192	7
TAP	10	240	4
TAP	10	240	6
TAP	10	288	5
TAP	10	288	7
TAP	11	0	3
TAP	11	0	4
TAP	11	96	0
TAP	11	96	7
TAP	11	192	2
TAP	11	192	5
TAP	12	0	1
TAP	12	48	6
TAP	12	96	1
TAP	12	192	6
TAP	12	240	1
TAP	12	288	6
STR	13	0	3
SCL	13	0	3	96	96	0
STR	13	0	7
SCL	13	0	7	96	96	4
TAP	13	240	2
TAP	13	288	1
STR	14	0	4
SCL	14	0	4	96	96	1
STR	14	192	3
SCR	14	192	3	96	96	6
HLD	15	0	7	96
TAP	15	96	1
HLD	15	192	5	96
TAP	15	288	3
TAP	16	0	4
TAP	16	96	2
TAP	16	96	7
TAP	16	192	3
TAP	16	288	0
STR	16	288	5
SI_	16	288	5	96	96	2
TAP	17	288	0
TAP	17	288	7
TAP	18	0	3
TAP	18	0	4
TAP	18	96	4
TAP	18	96	6
TAP	18	144	5
TAP	18	192	1
TAP	18	192	3
TAP	18	240	2
TAP	19	0	5
TAP	19	96	3
TAP	19	96	4
TAP	19	192	1
TAP	19	192	6
HLD	19	288	0	192
HLD	20	96	1	96
HLD	20	192	2	96
HLD	20	288	3	96
TAP	21	0	6
TAP	21	96	1
TAP	21	192	4
TAP	21	240	3
TAP	21	288	4
TAP	22	0	3
TAP	22	0	4
TAP	22	96	4
TAP	22	96	6
TAP	22	144	5
TAP	22	192	1
TAP	22	192	3
TAP	22	240	2
TAP	23	0	5
TAP	23	96	3
TAP	23	96	4
TAP	23	192	1
TAP	23	192	6
TAP	24	0	4
TAP	24	48	2
TAP	24	96	3
TAP	24	192	3
TAP	24	240	5
TAP	24	288	4
TAP	25	0	4
TAP	25	48	2
TAP	25	96	3
TAP	25	144	5
TAP	25	192	4
TAP	25	288	3
TAP	25	288	4
HLD	26	0	5	96
HLD	26	96	4	96
HLD	26	192	3	96
TAP	26	288	2
TAP	27	0	4
TAP	27	0	5
TAP	27	96	2
TAP	27	96	3
TAP	27	192	4
TAP	27	192	5
TAP	27	288	2
TAP	27	288	3
TAP	28	0	1
TAP	28	96	4
TAP	28	96	5
TAP	28	192	2
TAP	28	288	4
TAP	28	288	5
TAP	29	0	3
TAP	29	48	4
TAP	29	96	3
TAP	29	144	4
TAP	29	192	3
TAP	29	240	6
TAP	29	288	6
STR	30	0	5
SI_	30	0	5	96	192	2
TAP	31	0	5
TAP	31	48	4
TAP	31	96	2
TAP	31	192	2
TAP	31	240	3
TAP	31	288	5
TAP	32	0	6
TAP	32	48	5
TAP	32	96	0
TAP	32	192	1
TAP	32	192	5
TAP	32	240	2
TAP	32	240	6
TAP	32	288	1
TAP	32	288	5
HLD	33	0	5	288
STR	33	0	6
SI_	33	0	6	96	48	1
TAP	33	192	0
TAP	33	288	0
HLD	34	0	1	96
HLD	34	0	5	96
TAP	34	192	2
TAP	34	192	3
TAP	34	288	1
TAP	34	288	5
HLD	35	0	2	96
HLD	35	0	6	96
TAP	35	192	4
TAP	35	192	5
TAP	35	288	2
TAP	35	288	6
HLD	36	0	1	96
HLD	36	0	6	96
TAP	36	192	3
TAP	36	192	4
TAP	36	288	2
TAP	36	288	5
TAP	37	0	1
TAP	37	96	6
TAP	37	192	1
TAP	37	240	4
TAP	37	288	4
HLD	38	0	2	288
HLD	39	0	1	288
HLD	39	0	6	288
TAP	40	0	2
TAP	40	96	2
TAP	40	192	0
TAP	40	288	2
BRK	41	0	0
BRK	41	0	4
BRK	41	96	0
BRK	41	96	4
BRK	41	192	1
BRK	41	192	5
BRK	41	288	0
BRK	41	288	4
TAP	42	0	0
TAP	42	96	0
TAP	42	192	5
TAP	42	192	7
TAP	42	240	4
TAP	42	240	6
TAP	42	288	5
TAP	42	288	7
TAP	43	0	3
TAP	43	0	4
TAP	43	96	0
TAP	43	96	7
TAP	43	192	2
TAP	43	192	5
TAP	44	0	1
TAP	44	48	6
TAP	44	96	1
TAP	44	192	6
TAP	44	240	1
TAP	44	288	6
STR	45	0	3
SCL	45	0	3	96	96	0
STR	45	0	7
SCL	45	0	7	96	96	4
TAP	45	240	2
TAP	45	288	1
STR	46	0	4
SCL	46	0	4	96	96	1
STR	46	192	3
SCR	46	192	3	96	96	6
HLD	47	0	7	96
TAP	47	96	1
HLD	47	192	5	96
TAP	47	288	3
TAP	48	0	4
TAP	48	96	2
TAP	48	96	7
TAP	48	192	3
TAP	48	288	0
STR	48	288	5
SI_	48	288	5	96	96	2
TAP	49	288	0
TAP	49	288	7
TAP	50	0	3
TAP	50	0	4
TAP	50	96	4
TAP	50	96	6
TAP	50	144	5
TAP	50	192	1
TAP	50	192	3
TAP	50	240	2
TAP	51	0	5
TAP	51	96	3
TAP	51	96	4
TAP	51	192	1
TAP	51	192	6
HLD	51	288	0	192
HLD	52	96	1	96
HLD	52	192	2	96
HLD	52	288	3	96
TAP	53	0	6
TAP	53	96	1
TAP	53	192	4
TAP	53	240	3
TAP	53	288	4
TAP	54	0	3
TAP	54	0	4
TAP	54	96	4
TAP	54	96	6
TAP	54	144	5
TAP	54	192	1
TAP	54	192	3
TAP	54	240	2
TAP	55	0	5
TAP	55	96	3
TAP	55	96	4
TAP	55	192	1
TAP	55	192	6
TAP	56	0	4
TAP	56	48	2
TAP	56	96	3
TAP	56	192	3
TAP	56	240	5
TAP	56	288	4
TAP	57	0	4
TAP	57	48	2
TAP	57	96	3
TAP	57	144	5
TAP	57	192	4
TAP	57	288	3
TAP	57	288	4

T_REC_TAP	252
T_REC_BRK	8
T_REC_XTP	0
T_REC_HLD	31
T_REC_XHO	0
T_REC_STR	12
T_REC_BST	0
T_REC_XST	0
T_REC_TTP	0
T_REC_THO	0
T_REC_SLD	12
T_REC_ALL	315
T_NUM_TAP	264
T_NUM_BRK	8
T_NUM_HLD	31
T_NUM_SLD	12
T_NUM_ALL	315
T_JUDGE_TAP	272
T_JUDGE_HLD	82
T_JUDGE_SLD	12
T_JUDGE_ALL	366
TTM_EACHPAIRS	74
TTM_SCR_TAP	132000
TTM_SCR_BRK	20800
TTM_SCR_HLD	31000
TTM_SCR_SLD	18000
TTM_SCR_ALL	201800
TTM_SCR_S	195000
TTM_SCR_SS	201000
TTM_RAT_ACV	10039

