VERSION	0.00.00	1.03.00
FES_MODE	0
BPM_DEF	125.000	125.000	125.000	125.000
MET_DEF	4	4
RESOLUTION	384
CLK_DEF	384
COMPATIBLE_CODE	MA2

BPM	0	0	125.000
MET	0	0	4	4

TAP	2	0	1
TAP	2	96	0
TAP	2	192	6
TAP	2	288	7
TAP	3	0	3
TAP	3	96	3
TAP	3	192	4
TAP	3	288	4
TAP	4	0	3
TAP	4	96	2
TAP	4	192	5
TAP	4	288	4
TAP	5	0	1
HLD	5	96	6	144
TAP	5	240	0
TAP	5	288	0
TAP	6	0	0
TAP	6	96	0
TAP	6	192	5
TAP	6	288	5
TAP	7	0	2
TAP	7	96	3
TAP	7	192	5
TAP	7	288	4
TAP	8	0	3
TAP	8	96	4
TAP	8	192	4
TAP	8	288	3
TAP	9	0	0
HLD	9	96	7	144
TAP	9	240	6
TAP	9	288	6
TAP	10	0	6
TAP	10	96	4
TAP	10	192	1
TAP	10	288	3
TAP	11	0	4
TAP	11	96	3
HLD	11	192	6	96
TAP	11	288	5
TAP	12	0	1
TAP	12	96	2
TAP	12	192	3
TAP	12	288	4
TAP	13	0	5
TAP	13	96	6
TAP	13	192	0
TAP	13	192	1
TAP	13	288	1
HLD	14	0	0	96
HLD	14	96	2	96
HLD	14	192	4	96
HLD	15	0	7	96
HLD	15	96	5	96
HLD	15	192	3	96
TAP	15	288	2
TAP	16	0	3
TAP	16	96	4
TAP	16	192	5
TAP	16	288	3
TAP	17	0	5
TAP	17	96	4
TAP	17	192	3
TAP	17	288	2
TAP	18	0	3
TAP	18	96	5
TAP	18	96	6
TAP	18	192	1
TAP	18	192	2
TAP	19	0	5
TAP	19	96	3
TAP	19	192	4
BRK	19	288	0
TAP	20	96	1
TAP	20	288	2
TAP	21	96	3
TAP	21	240	4
TAP	21	288	4
TAP	22	0	3
TAP	22	96	4
TAP	22	96	5
TAP	22	192	2
TAP	22	192	3
TAP	23	0	3
TAP	23	96	4
TAP	23	192	3
TAP	23	288	0
TAP	23	288	7
TAP	24	96	2
TAP	24	288	5
TAP	25	96	2
TAP	25	240	3
BRK	25	288	3
TAP	26	0	2
TAP	26	96	3
TAP	26	192	4
TAP	26	288	5
TAP	27	0	2
TAP	27	0	3
TAP	27	96	4
TAP	27	96	5
TAP	27	192	1
TAP	27	192	2
TAP	27	288	5
TAP	27	288	6
STR	28	0	1
SI_	28	0	1	96	48	6
STR	28	192	5
SI_	28	192	5	96	48	2
TAP	29	0	1
TAP	29	96	6
TAP	29	192	0
TAP	29	192	6
TAP	29	240	7
TAP	29	288	7
TAP	30	0	5
TAP	30	96	4
TAP	30	192	3
TAP	30	288	2
TAP	31	0	6
TAP	31	96	1
TAP	31	192	6
TAP	31	288	1
STR	32	0	0
SI_	32	0	0	96	48	3
STR	32	192	7
SI_	32	192	7	96	48	4
HLD	33	0	2	96
HLD	33	96	3	96
HLD	33	192	4	96
HLD	33	288	5	96
HLD	34	0	1	288
TAP	34	96	2
TAP	34	288	4
HLD	35	0	6	288
TAP	35	96	5
TAP	35	288	3
HLD	36	0	2	288
TAP	36	96	4
TAP	36	288	5
HLD	37	0	5	288
TAP	37	96	3
TAP	37	288	2
TAP	38	96	2
TAP	38	192	3
TAP	38	288	2
TAP	39	96	5
TAP	39	192	4
TAP	39	288	5
TAP	40	0	3
TAP	40	96	3
TAP	40	192	4
TAP	40	288	4
TAP	41	0	3
TAP	41	0	4
TAP	41	96	3
TAP	41	96	4
TAP	41	192	0
TAP	41	192	1
TAP	41	288	6
TAP	41	288	7
TAP	42	0	6
TAP	42	96	4
TAP	42	192	1
TAP	42	288	3
TAP	43	0	4
TAP	43	96	3
HLD	43	192	7	96
TAP	43	288	0
TAP	44	0	1
TAP	44	96	2
TAP	44	192	3
TAP	44	288	4
TAP	45	0	3
TAP	45	96	4
TAP	45	192	0
TAP	45	192	7
TAP	45	288	1
TAP	46	0	2
TAP	46	96	3
TAP	46	192	5
TAP	46	288	4
TAP	47	0	7
TAP	47	96	1
HLD	47	192	6	96
TAP	47	288	4
TAP	48	0	2
TAP	48	96	4
TAP	48	192	5
TAP	48	288	3
TAP	49	0	5
TAP	49	96	4
TAP	49	192	3
TAP	49	288	2
TAP	50	0	3
TAP	50	96	5
TAP	50	96	6
TAP	50	192	1
TAP	50	192	2
TAP	51	0	5
TAP	51	96	3
TAP	51	192	4
BRK	51	288	0
TAP	52	96	1
TAP	52	288	2
TAP	53	96	3
TAP	53	240	4
TAP	53	288	4
TAP	54	0	3
TAP	54	96	4
TAP	54	96	5
TAP	54	192	2
TAP	54	192	3
TAP	55	0	3
TAP	55	96	4
TAP	55	192	3
TAP	55	288	0
TAP	55	288	7
TAP	56	96	2
TAP	56	288	5
TAP	57	96	1
TAP	57	240	7
BRK	57	288	7

T_REC_TAP	192
T_REC_BRK	4
T_REC_XTP	0
T_REC_HLD	19
T_REC_XHO	0
T_REC_STR	4
T_REC_BST	0
T_REC_XST	0
T_REC_TTP	0
T_REC_THO	0
T_REC_SLD	4
T_REC_ALL	223
T_NUM_TAP	196
T_NUM_BRK	4
T_NUM_HLD	19
T_NUM_SLD	4
T_NUM_ALL	223
T_JUDGE_TAP	200
T_JUDGE_HLD	56
T_JUDGE_SLD	4
T_JUDGE_ALL	260
TTM_EACHPAIRS	21
TTM_SCR_TAP	98000
TTM_SCR_BRK	10400
TTM_SCR_HLD	19000
TTM_SCR_SLD	6000
TTM_SCR_ALL	133400
TTM_SCR_S	129050
TTM_SCR_SS	133000
TTM_RAT_ACV	10030

