VERSION	0.00.00	1.03.00
FES_MODE	0
BPM_DEF	125.000	125.000	125.000	125.000
MET_DEF	4	4
RESOLUTION	384
CLK_DEF	384
COMPATIBLE_CODE	MA2

BPM	0	0	125.000
MET	0	0	4	4

TAP	2	96	0
TAP	2	288	0
TAP	3	96	7
TAP	3	288	7
TAP	4	96	0
TAP	4	288	0
TAP	5	96	7
TAP	5	288	7
TAP	6	96	1
TAP	6	288	1
TAP	7	96	6
TAP	7	288	6
TAP	8	96	1
TAP	8	288	1
TAP	9	96	6
TAP	9	288	6
TAP	10	96	7
TAP	10	192	1
TAP	10	288	1
HLD	11	96	5	96
HLD	11	288	2	96
TAP	12	96	0
TAP	12	192	1
TAP	12	288	2
STR	13	0	3
SI_	13	0	3	96	96	0
TAP	14	96	1
TAP	14	288	6
TAP	15	0	7
TAP	15	96	2
TAP	15	192	6
TAP	16	96	6
STR	16	192	6
SI_	16	192	6	96	96	1
TAP	17	288	0
TAP	17	288	7
TAP	18	96	5
TAP	18	192	2
TAP	19	96	7
BRK	19	288	0
TAP	21	0	1
TAP	21	192	6
TAP	22	96	0
TAP	22	192	1
TAP	23	0	1
TAP	23	0	6
TAP	23	192	1
TAP	23	192	6
TAP	24	0	4
TAP	24	192	3
TAP	25	0	4
TAP	25	96	3
TAP	25	192	4
TAP	26	0	0
TAP	26	192	7
TAP	27	0	0
TAP	27	96	0
TAP	27	192	0
TAP	28	0	2
TAP	28	192	5
TAP	29	0	1
TAP	29	96	1
TAP	29	192	1
HLD	30	0	6	96
HLD	30	192	1	96
TAP	31	0	0
TAP	31	96	0
TAP	31	192	0
TAP	32	0	1
TAP	32	192	6
TAP	33	192	0
TAP	33	288	0
HLD	34	0	1	288
HLD	35	0	6	288
HLD	36	0	1	288
HLD	36	0	6	288
TAP	37	96	1
TAP	37	288	1
HLD	38	0	2	288
HLD	39	0	5	288
TAP	40	0	0
TAP	40	192	7
BRK	41	0	7
BRK	41	96	7
BRK	41	192	7
BRK	41	288	7
TAP	42	96	7
TAP	42	192	1
TAP	42	288	1
HLD	43	96	5	96
HLD	43	288	2	96
TAP	44	96	0
TAP	44	192	1
TAP	44	288	2
STR	45	0	3
SI_	45	0	3	96	96	0
TAP	46	96	1
TAP	46	288	6
TAP	47	0	7
TAP	47	96	2
TAP	47	192	6
TAP	48	96	6
STR	48	192	6
SI_	48	192	6	96	96	1
TAP	49	288	0
TAP	49	288	7
TAP	50	96	5
TAP	50	192	2
TAP	51	96	7
BRK	51	288	0
TAP	53	0	1
TAP	53	192	6
TAP	54	96	0
TAP	54	192	1
TAP	55	0	1
TAP	55	0	6
TAP	55	192	1
TAP	55	192	6
TAP	56	0	4
TAP	56	192	3
TAP	57	0	4
TAP	57	96	3
TAP	57	192	4

T_REC_TAP	97
T_REC_BRK	6
T_REC_XTP	0
T_REC_HLD	12
T_REC_XHO	0
T_REC_STR	4
T_REC_BST	0
T_REC_XST	0
T_REC_TTP	0
T_REC_THO	0
T_REC_SLD	4
T_REC_ALL	123
T_NUM_TAP	101
T_NUM_BRK	6
T_NUM_HLD	12
T_NUM_SLD	4
T_NUM_ALL	123
T_JUDGE_TAP	107
T_JUDGE_HLD	48
T_JUDGE_SLD	4
T_JUDGE_ALL	159
TTM_EACHPAIRS	7
TTM_SCR_TAP	50500
TTM_SCR_BRK	15600
TTM_SCR_HLD	12000
TTM_SCR_SLD	6000
TTM_SCR_ALL	84100
TTM_SCR_S	81000
TTM_SCR_SS	83500
TTM_RAT_ACV	10071

