VERSION	0.00.00	1.03.00
FES_MODE	0
BPM_DEF	170.000	170.000	170.000	170.000
MET_DEF	4	4
RESOLUTION	384
CLK_DEF	384
COMPATIBLE_CODE	MA2

BPM	0	0	170.000
MET	0	0	4	4

TAP	2	0	7
TAP	2	48	0
TAP	2	96	1
HLD	2	144	2	240
TAP	3	0	0
TAP	3	48	7
TAP	3	96	6
HLD	3	144	5	240
TAP	4	0	7
TAP	4	48	0
TAP	4	96	1
TAP	4	144	2
TAP	4	144	6
TAP	4	240	1
TAP	4	240	5
TAP	4	336	0
STR	5	0	0
SCL	5	0	0	96	96	5
STR	5	96	5
SCL	5	96	5	96	96	2
STR	5	192	2
SCL	5	192	2	96	96	7
TAP	5	288	7
TAP	6	0	4
TAP	6	48	3
TAP	6	96	2
HLD	6	144	1	144
TAP	6	288	0
TAP	7	0	3
TAP	7	48	4
TAP	7	96	5
HLD	7	144	6	144
TAP	7	288	7
TAP	8	0	4
TAP	8	48	3
TAP	8	96	2
HLD	8	144	1	192
HLD	8	144	6	192
BRK	9	0	3
BRK	9	0	4
STR	9	288	0
SI_	9	288	0	96	48	4
TAP	10	0	0
TAP	10	48	5
TAP	10	96	4
TAP	10	96	6
TAP	10	192	6
STR	10	240	7
SI_	10	240	7	96	48	3
TAP	10	288	0
TAP	10	336	1
TAP	11	48	2
TAP	11	96	3
TAP	11	144	2
TAP	11	192	7
TAP	11	240	6
TAP	11	288	5
TAP	11	336	4
TAP	11	336	6
TAP	12	48	2
TAP	12	96	1
TAP	12	96	3
TAP	12	192	1
STR	12	240	0
SI_	12	240	0	96	48	4
TAP	12	288	7
TAP	12	336	6
TAP	13	48	5
TAP	13	96	4
TAP	13	144	5
TAP	13	192	0
TAP	13	240	1
TAP	13	288	2
TAP	13	336	1
TAP	13	336	3
TAP	14	48	6
TAP	14	96	5
TAP	14	96	7
TAP	14	192	6
STR	14	240	7
SI_	14	240	7	96	48	3
TAP	14	288	0
TAP	14	336	1
TAP	15	48	2
TAP	15	96	3
TAP	15	144	2
TAP	15	192	7
TAP	15	240	6
TAP	15	288	5
TAP	15	336	4
TAP	15	336	6
TAP	16	48	1
TAP	16	96	0
TAP	16	96	2
TAP	16	192	1
TAP	16	240	0
TAP	16	288	7
TAP	16	336	6
TAP	17	0	2
TAP	17	0	5
TAP	17	48	3
TAP	17	72	4
TAP	17	96	3
TAP	17	120	4
TAP	17	144	3
BRK	17	192	0
TAP	17	192	1
TAP	17	264	5
BRK	17	264	6
TAP	17	336	2
BST	17	336	3
SI_	17	336	3	96	48	7
TAP	18	48	0
TAP	18	96	1
TAP	18	144	2
TAP	18	192	7
TAP	18	240	6
TAP	18	288	5
TAP	18	336	1
HLD	19	0	1	96
TAP	19	96	2
HLD	19	144	2	96
TAP	19	240	3
TAP	19	288	6
STR	19	336	4
SI_	19	336	4	96	48	0
TAP	19	336	5
TAP	20	48	7
TAP	20	96	6
TAP	20	144	5
TAP	20	192	0
TAP	20	240	1
TAP	20	288	2
TAP	20	336	6
HLD	21	0	6	96
TAP	21	96	5
HLD	21	144	5	96
TAP	21	240	4
TAP	21	288	1
TAP	21	336	2
TAP	21	336	3
TAP	22	48	0
STR	22	96	1
SCR	22	96	1	96	144	6
TAP	22	144	7
TAP	22	192	6
TAP	23	48	5
TAP	23	96	4
TAP	23	144	2
STR	23	192	3
SCL	23	192	3	96	96	0
STR	23	288	0
SCL	23	288	0	96	96	5
HLD	24	0	4	288
TAP	24	144	3
HLD	24	192	3	96
TAP	24	336	1
TAP	24	336	6
TAP	25	48	3
TAP	25	96	2
TAP	25	144	5
TAP	25	168	4
TAP	25	192	5
TAP	25	240	2
TAP	25	264	3
TAP	25	288	2
STR	25	336	4
SI_	25	336	4	96	48	0
TAP	25	336	5
TAP	26	48	7
TAP	26	96	6
TAP	26	144	5
TAP	26	192	0
TAP	26	240	1
TAP	26	288	2
TAP	26	336	6
TAP	27	0	5
HLD	27	0	7	96
TAP	27	96	0
HLD	27	144	0	96
TAP	27	240	1
TAP	27	288	4
TAP	27	336	2
STR	27	336	3
SI_	27	336	3	96	48	7
TAP	28	48	0
TAP	28	96	1
TAP	28	144	2
TAP	28	192	7
TAP	28	240	6
TAP	28	288	5
TAP	28	336	1
HLD	29	0	0	96
TAP	29	0	2
TAP	29	96	7
HLD	29	144	7	96
TAP	29	240	6
TAP	29	288	3
TAP	29	336	4
TAP	29	336	5
TAP	30	48	7
STR	30	96	6
SCL	30	96	6	96	144	1
TAP	30	144	0
TAP	30	192	1
TAP	31	48	2
TAP	31	96	3
TAP	31	144	5
STR	31	192	4
SCR	31	192	4	96	96	7
STR	31	288	7
SCR	31	288	7	96	96	2
HLD	32	0	3	288
TAP	32	144	4
HLD	32	192	4	96
TAP	32	336	1
TAP	32	336	6
TAP	33	48	4
TAP	33	96	5
TAP	33	144	2
TAP	33	168	3
TAP	33	192	2
TAP	33	240	5
TAP	33	264	4
TAP	33	288	5
TAP	33	336	2
TAP	33	336	3
TAP	34	0	1
TAP	34	48	0
TAP	34	96	2
TAP	34	96	7
TAP	34	144	3
TAP	34	144	6
TAP	34	192	5
TAP	34	216	4
TAP	34	240	5
TAP	34	288	3
TAP	34	288	6
TAP	34	336	2
TAP	34	336	7
TAP	35	0	6
TAP	35	48	7
TAP	35	96	0
TAP	35	96	5
TAP	35	144	1
TAP	35	144	4
TAP	35	192	2
TAP	35	216	3
TAP	35	240	2
TAP	35	288	1
TAP	35	288	4
TAP	35	336	0
TAP	35	336	5
TAP	36	0	1
TAP	36	48	0
TAP	36	96	2
TAP	36	96	7
TAP	36	144	3
TAP	36	144	6
TAP	36	192	5
TAP	36	216	4
TAP	36	240	5
TAP	36	288	2
TAP	36	288	7
TAP	36	336	0
TAP	37	0	1
TAP	37	0	4
TAP	37	48	2
TAP	37	96	3
TAP	37	96	6
TAP	37	144	5
STR	37	192	3
SI_	37	192	3	96	48	0
STR	37	192	4
SI_	37	192	4	96	48	7
TAP	37	288	3
TAP	37	288	4
HLD	38	0	5	96
TAP	38	96	4
TAP	38	144	5
TAP	38	192	3
TAP	38	240	3
TAP	38	288	6
TAP	38	336	6
HLD	39	0	1	96
TAP	39	48	3
TAP	39	96	3
HLD	39	144	6	96
TAP	39	192	4
TAP	39	240	4
TAP	39	288	0
TAP	39	336	1
HLD	40	0	2	144
TAP	40	48	3
TAP	40	96	4
HLD	40	144	5	144
TAP	40	192	6
TAP	40	240	7
TAP	40	288	0
STR	40	336	1
SI_	40	336	1	96	48	5
TAP	40	336	6
TAP	41	48	1
STR	41	48	6
SI_	41	48	6	96	48	2
TAP	41	144	1
TAP	41	144	6
TAP	41	192	0
TAP	41	240	7
TAP	41	288	6
TAP	41	336	5
TAP	42	0	0
TAP	42	24	1
TAP	42	48	2
TAP	42	72	3
TAP	42	96	7
TAP	42	120	0
TAP	42	144	1
TAP	42	168	2
STR	42	192	3
SI_	42	192	3	96	48	7
TAP	42	288	0
TAP	43	0	7
TAP	43	24	6
TAP	43	48	5
TAP	43	72	4
TAP	43	96	0
TAP	43	120	7
TAP	43	144	6
TAP	43	168	5
STR	43	192	4
SI_	43	192	4	96	48	0
TAP	43	240	6
TAP	43	288	7
TAP	44	0	1
TAP	44	48	0
TAP	44	96	2
TAP	44	96	7
TAP	44	144	2
TAP	44	144	7
TAP	44	192	6
TAP	44	240	7
TAP	44	288	0
TAP	44	288	5
TAP	44	336	6
TAP	45	0	2
TAP	45	0	7
TAP	45	48	1
TAP	45	96	0
TAP	45	96	5
TAP	45	144	6
STR	45	192	0
SI_	45	192	0	96	48	4
STR	45	192	7
SI_	45	192	7	96	48	3
TAP	45	216	1
TAP	45	216	6
TAP	45	240	2
TAP	45	240	5
TAP	45	288	0
TAP	45	288	7
HLD	46	0	2	96
TAP	46	96	3
TAP	46	144	2
TAP	46	192	4
TAP	46	240	4
TAP	46	288	1
TAP	46	336	1
HLD	47	0	6	96
TAP	47	48	4
TAP	47	96	4
HLD	47	144	1	96
TAP	47	192	3
TAP	47	240	3
TAP	47	288	4
TAP	47	336	5
HLD	48	0	6	96
TAP	48	48	7
TAP	48	96	7
HLD	48	144	1	96
TAP	48	192	0
TAP	48	240	0
TAP	48	288	7
STR	48	336	0
SCR	48	336	0	96	144	7
TAP	49	48	7
TAP	49	96	7
TAP	49	240	3
TAP	49	240	4
STR	49	288	3
SI_	49	288	3	96	144	7
TAP	49	300	4
TAP	49	312	5
TAP	49	324	6
TAP	49	336	7
TAP	49	348	0
TAP	49	360	1
TAP	49	372	2
HLD	50	0	3	192
BRK	50	192	7
TAP	50	240	3
TAP	50	264	4
TAP	50	288	3
TAP	50	312	4
TAP	50	336	3
TAP	51	0	4
TAP	51	0	6
TAP	51	48	5
TAP	51	96	1
TAP	51	96	3
TAP	51	144	2
TAP	51	192	4
TAP	51	192	6
STR	51	240	3
SI_	51	240	3	96	48	6
TAP	51	240	5
TAP	51	288	2
TAP	51	288	4
TAP	51	336	1
TAP	51	336	3
STR	52	48	0
SI_	52	48	0	96	48	3
SI_	52	48	0	96	48	5
TAP	52	96	1
TAP	52	96	7
BRK	52	144	0
TAP	52	240	4
TAP	52	288	3
TAP	52	336	2
TAP	53	0	1
TAP	53	0	4
TAP	53	48	5
TAP	53	96	2
TAP	53	96	6
TAP	53	144	1
TAP	53	192	0
TAP	53	192	5
TAP	53	240	6
TAP	53	288	1
STR	53	288	7
SI_	53	288	7	96	48	3
TAP	53	336	0
TAP	53	336	6
TAP	54	0	5
TAP	54	0	7
TAP	54	96	2
TAP	54	96	4
STR	54	144	0
SI_	54	144	0	96	48	5
STR	54	144	1
SI_	54	144	1	96	48	4
BRK	54	240	0
BRK	54	240	1
TAP	54	336	3
TAP	54	336	6
TAP	55	0	1
TAP	55	0	4
TAP	55	96	3
TAP	55	96	6
TAP	55	144	1
TAP	55	144	4
TAP	55	240	2
TAP	55	264	3
TAP	55	288	2
TAP	55	336	1
TAP	55	336	4
TAP	56	0	0
TAP	56	48	7
TAP	56	96	3
TAP	56	96	6
STR	56	144	1
SCR	56	144	1	96	48	4
TAP	56	144	4
TAP	56	240	4
TAP	56	288	5
TAP	56	336	6
TAP	57	0	7
STR	57	48	0
SCR	57	48	0	96	48	3
TAP	57	144	6
TAP	57	240	5
TAP	57	264	4
TAP	57	288	5
TAP	57	336	3
TAP	57	336	6
STR	58	0	1
SCR	58	0	1	96	48	4
TAP	58	0	4
BRK	58	96	1
STR	58	144	0
SCR	58	144	0	96	48	3
BRK	58	240	0
TAP	58	288	4
TAP	58	312	5
TAP	58	336	6
TAP	58	360	7
TAP	59	0	0
TAP	59	0	2
TAP	59	48	1
TAP	59	96	5
TAP	59	96	7
TAP	59	144	6
TAP	59	192	0
TAP	59	192	2
TAP	59	240	1
TAP	59	240	3
TAP	59	288	2
STR	59	288	4
SI_	59	288	4	96	48	1
TAP	59	336	3
TAP	59	336	5
TAP	60	0	4
TAP	60	0	6
STR	60	48	7
SI_	60	48	7	96	48	2
SI_	60	48	7	96	48	4
TAP	60	96	0
TAP	60	96	6
BRK	60	144	7
TAP	60	240	3
TAP	60	288	4
TAP	60	336	5
TAP	61	0	3
TAP	61	0	6
TAP	61	48	2
TAP	61	96	1
TAP	61	96	5
TAP	61	144	6
TAP	61	192	2
TAP	61	192	7
TAP	61	240	1
STR	61	288	0
SI_	61	288	0	96	48	4
TAP	61	288	6
TAP	61	336	1
TAP	61	336	7
TAP	62	0	0
TAP	62	0	2
TAP	62	96	3
TAP	62	96	5
STR	62	144	6
SI_	62	144	6	96	48	3
STR	62	144	7
SI_	62	144	7	96	48	2
BRK	62	240	6
BRK	62	240	7
TAP	62	336	1
TAP	62	336	4
TAP	63	0	3
TAP	63	0	6
TAP	63	96	1
TAP	63	96	4
TAP	63	144	3
TAP	63	144	6
TAP	63	240	5
TAP	63	264	4
TAP	63	288	5
TAP	63	336	3
TAP	63	336	6
TAP	64	0	7
TAP	64	48	0
TAP	64	96	1
TAP	64	96	4
TAP	64	144	3
STR	64	144	6
SCL	64	144	6	96	48	3
TAP	64	240	3
TAP	64	288	2
TAP	64	336	1
TAP	65	0	0
STR	65	48	7
SCL	65	48	7	96	48	4
TAP	65	144	1
TAP	65	240	2
TAP	65	264	3
TAP	65	288	2
TAP	65	336	1
TAP	65	336	4
TAP	66	0	3
STR	66	0	6
SCL	66	0	6	96	48	3
BRK	66	96	6
STR	66	144	7
SCL	66	144	7	96	48	4
BRK	66	240	7
TAP	66	288	3
TAP	66	312	2
TAP	66	336	1
TAP	66	360	0
STR	67	0	7
SI_	67	0	7	96	48	3
TAP	67	96	0
STR	67	144	0
SI_	67	144	0	96	48	4
TAP	67	240	4
TAP	67	288	5
TAP	67	336	6
STR	68	0	7
SCL	68	0	7	96	96	4
STR	68	96	4
SCL	68	96	4	96	96	1
STR	68	192	1
SCL	68	192	1	96	96	6
STR	68	288	6
SCL	68	288	6	96	96	3
STR	69	0	3
SCL	69	0	3	96	144	4
TAP	69	288	3
TAP	69	312	4
TAP	69	336	3
TAP	69	360	4
TAP	70	0	3
STR	70	72	1
SI_	70	72	1	96	24	5
TAP	70	72	5
TAP	70	144	0
TAP	70	144	1
TAP	70	192	7
TAP	70	264	2
STR	70	264	6
SI_	70	264	6	96	24	2
TAP	70	336	6
TAP	70	336	7
BRK	71	0	1

T_REC_TAP	469
T_REC_BRK	16
T_REC_XTP	0
T_REC_HLD	29
T_REC_XHO	0
T_REC_STR	53
T_REC_BST	1
T_REC_XST	0
T_REC_TTP	0
T_REC_THO	0
T_REC_SLD	56
T_REC_ALL	624
T_NUM_TAP	522
T_NUM_BRK	17
T_NUM_HLD	29
T_NUM_SLD	56
T_NUM_ALL	624
T_JUDGE_TAP	539
T_JUDGE_HLD	82
T_JUDGE_SLD	56
T_JUDGE_ALL	677
TTM_EACHPAIRS	108
TTM_SCR_TAP	261000
TTM_SCR_BRK	44200
TTM_SCR_HLD	29000
TTM_SCR_SLD	84000
TTM_SCR_ALL	418200
TTM_SCR_S	404050
TTM_SCR_SS	416500
TTM_RAT_ACV	10040

