VERSION	0.00.00	1.03.00
FES_MODE	0
BPM_DEF	170.000	170.000	170.000	170.000
MET_DEF	4	4
RESOLUTION	384
CLK_DEF	384
COMPATIBLE_CODE	MA2

BPM	0	0	170.000
MET	0	0	4	4

TAP	2	0	4
TAP	2	0	5
TAP	2	144	4
HLD	2	192	1	96
TAP	3	0	2
TAP	3	0	3
TAP	3	144	3
HLD	3	192	6	96
TAP	4	0	4
TAP	4	0	5
TAP	4	144	4
STR	4	192	1
SI_	4	192	1	96	192	6
TAP	6	0	2
TAP	6	0	3
TAP	6	144	3
HLD	6	192	6	96
TAP	7	0	4
TAP	7	0	5
TAP	7	144	4
HLD	7	192	1	96
TAP	8	0	2
TAP	8	0	3
TAP	8	144	3
HLD	8	192	6	96
BRK	9	0	3
BRK	9	0	4
TAP	10	0	5
TAP	10	48	5
TAP	10	96	1
TAP	10	144	5
TAP	10	192	0
TAP	10	240	1
TAP	10	288	2
TAP	10	336	1
TAP	11	0	7
TAP	11	48	6
TAP	11	96	5
TAP	11	144	0
TAP	11	192	7
TAP	11	240	6
TAP	11	288	6
TAP	12	0	2
TAP	12	48	2
TAP	12	96	6
TAP	12	144	2
TAP	12	192	7
TAP	12	240	6
TAP	12	288	5
TAP	12	336	6
TAP	13	0	0
TAP	13	48	1
TAP	13	96	2
TAP	13	144	7
TAP	13	192	0
TAP	13	240	1
TAP	13	288	1
TAP	14	0	7
TAP	14	48	7
TAP	14	96	2
TAP	14	144	7
TAP	14	192	0
TAP	14	240	1
TAP	14	288	6
TAP	14	336	5
TAP	15	0	0
TAP	15	48	7
TAP	15	96	6
TAP	15	144	0
TAP	15	192	1
TAP	15	240	2
TAP	15	288	2
TAP	15	288	3
TAP	16	0	0
TAP	16	48	0
TAP	16	96	5
TAP	16	144	0
TAP	16	192	7
TAP	16	240	6
TAP	16	288	1
TAP	16	336	2
TAP	17	0	7
TAP	17	48	0
TAP	17	96	1
TAP	17	144	7
TAP	17	192	6
TAP	17	192	7
TAP	17	264	1
TAP	17	264	2
TAP	17	336	4
TAP	17	336	5
TAP	18	48	2
TAP	18	96	2
TAP	18	96	3
TAP	18	192	5
TAP	18	240	4
TAP	18	240	5
TAP	18	336	2
HLD	19	0	2	96
TAP	19	96	3
HLD	19	144	3	96
TAP	19	240	4
HLD	19	288	4	96
TAP	20	0	5
TAP	20	48	5
TAP	20	96	4
TAP	20	96	5
TAP	20	192	2
TAP	20	240	2
TAP	20	240	3
TAP	20	336	5
HLD	21	0	5	96
TAP	21	96	4
HLD	21	144	4	96
TAP	21	240	3
HLD	21	288	3	96
TAP	22	48	2
TAP	22	96	5
HLD	22	144	4	144
STR	22	192	3
SI_	22	192	3	96	96	6
TAP	23	48	5
TAP	23	96	2
HLD	23	144	3	144
STR	23	192	4
SI_	23	192	4	96	96	1
STR	24	0	7
SCR	24	0	7	96	96	2
TAP	24	144	3
HLD	24	192	3	384
TAP	26	48	0
TAP	26	72	1
TAP	26	96	2
TAP	26	192	7
TAP	26	216	6
TAP	26	240	5
TAP	26	336	7
TAP	26	360	0
TAP	27	0	1
TAP	27	96	0
TAP	27	120	7
TAP	27	144	6
TAP	27	240	7
TAP	27	264	0
TAP	27	288	1
TAP	28	48	7
TAP	28	72	6
TAP	28	96	5
TAP	28	192	0
TAP	28	216	1
TAP	28	240	2
TAP	28	336	0
TAP	28	360	7
TAP	29	0	6
TAP	29	96	7
TAP	29	120	0
TAP	29	144	1
TAP	29	240	0
TAP	29	264	7
TAP	29	288	6
TAP	30	48	1
TAP	30	96	7
TAP	30	144	2
TAP	30	168	1
HLD	30	192	0	192
TAP	31	48	6
TAP	31	96	0
TAP	31	144	5
TAP	31	168	6
STR	31	192	7
SI_	31	192	7	96	96	3
STR	32	0	0
SI_	32	0	0	96	96	4
STR	32	192	6
SCR	32	192	6	96	192	1
TAP	34	0	2
HLD	34	0	7	144
TAP	34	96	0
HLD	34	144	1	144
TAP	34	240	0
TAP	34	288	7
TAP	34	336	6
HLD	35	0	0	144
TAP	35	0	5
TAP	35	96	7
HLD	35	144	6	144
TAP	35	240	7
TAP	35	288	0
TAP	35	336	1
TAP	36	0	2
HLD	36	0	5	144
TAP	36	96	1
HLD	36	144	2	144
TAP	36	240	4
TAP	36	288	5
TAP	36	336	6
TAP	37	0	3
BRK	37	0	7
TAP	37	48	2
TAP	37	96	1
BRK	37	144	0
TAP	37	240	6
TAP	37	336	1
HLD	38	0	2	96
TAP	38	96	1
HLD	38	144	2	240
TAP	38	240	0
TAP	38	288	7
TAP	38	336	6
HLD	39	0	5	96
TAP	39	48	6
TAP	39	96	6
HLD	39	144	5	240
TAP	39	240	7
TAP	39	288	0
TAP	39	336	1
HLD	40	0	2	96
TAP	40	96	1
HLD	40	144	2	96
TAP	40	240	4
TAP	40	288	3
TAP	40	336	1
TAP	40	336	2
TAP	41	48	4
TAP	41	48	5
TAP	41	144	5
TAP	41	144	6
TAP	41	240	2
TAP	41	240	3
TAP	41	336	2
TAP	42	0	2
TAP	42	0	7
TAP	42	96	0
TAP	42	96	3
TAP	42	144	1
TAP	42	144	4
TAP	42	240	0
TAP	42	240	3
TAP	42	288	2
TAP	42	288	7
TAP	43	0	0
TAP	43	0	5
TAP	43	96	4
TAP	43	96	7
TAP	43	144	3
TAP	43	144	6
TAP	43	240	4
TAP	43	240	7
TAP	43	288	0
TAP	43	288	5
TAP	44	0	2
TAP	44	0	6
TAP	44	96	1
TAP	44	96	5
TAP	44	144	0
TAP	44	144	4
TAP	44	240	3
TAP	44	240	7
TAP	44	288	0
TAP	44	288	4
TAP	44	336	5
TAP	45	0	4
TAP	45	0	6
TAP	45	48	3
TAP	45	96	2
TAP	45	144	1
TAP	45	144	3
TAP	45	240	2
TAP	45	336	2
HLD	46	0	3	288
TAP	46	96	0
TAP	46	144	0
TAP	46	240	7
TAP	46	288	6
TAP	46	336	5
HLD	47	0	4	288
TAP	47	96	7
TAP	47	144	7
TAP	47	240	0
TAP	47	288	1
TAP	47	336	2
TAP	48	48	4
TAP	48	72	3
TAP	48	96	2
TAP	48	192	3
TAP	48	240	5
TAP	48	288	6
TAP	48	336	0
TAP	49	48	7
HLD	49	96	7	192
TAP	50	0	7
TAP	50	48	0
TAP	50	72	1
TAP	50	96	2
TAP	50	144	3
TAP	50	192	7
TAP	50	216	6
TAP	50	240	5
TAP	50	264	4
BRK	50	288	3
TAP	51	0	3
TAP	51	0	5
TAP	51	48	4
TAP	51	96	3
TAP	51	96	5
TAP	51	144	6
TAP	51	192	3
TAP	51	192	5
TAP	51	240	4
TAP	51	288	3
TAP	51	336	2
TAP	51	336	4
TAP	52	0	3
TAP	52	48	4
TAP	52	96	5
TAP	52	144	4
TAP	52	144	6
TAP	52	240	5
TAP	52	240	7
TAP	52	336	4
TAP	52	336	6
HLD	53	0	0	96
TAP	53	96	6
HLD	53	144	7	96
TAP	53	240	1
TAP	53	288	0
STR	53	336	7
SI_	53	336	7	96	96	2
TAP	54	96	7
STR	54	144	6
SI_	54	144	6	96	96	3
TAP	54	336	5
TAP	55	0	5
TAP	55	96	2
TAP	55	144	2
TAP	55	240	4
TAP	55	264	3
TAP	55	288	4
TAP	55	336	3
STR	56	0	2
SCR	56	0	2	96	96	5
TAP	56	240	2
TAP	56	240	3
TAP	56	336	4
TAP	56	336	5
TAP	57	0	2
TAP	57	48	3
TAP	57	96	4
TAP	57	144	2
TAP	57	144	3
TAP	57	240	5
TAP	57	264	4
TAP	57	288	3
TAP	57	336	2
TAP	58	0	1
TAP	58	0	3
TAP	58	96	2
BRK	58	144	3
BRK	58	144	6
BRK	58	240	1
BRK	58	240	4
TAP	58	336	3
TAP	59	0	2
TAP	59	0	4
TAP	59	48	3
TAP	59	96	2
TAP	59	96	4
TAP	59	144	1
TAP	59	192	2
TAP	59	192	4
TAP	59	240	3
TAP	59	288	4
TAP	59	336	3
TAP	59	336	5
TAP	60	0	4
TAP	60	48	3
TAP	60	96	2
TAP	60	144	1
TAP	60	144	3
TAP	60	240	0
TAP	60	240	2
TAP	60	336	1
TAP	60	336	3
HLD	61	0	7	96
TAP	61	96	1
HLD	61	144	0	96
TAP	61	240	6
TAP	61	288	7
STR	61	336	0
SI_	61	336	0	96	96	5
TAP	62	96	0
STR	62	144	1
SI_	62	144	1	96	96	4
TAP	62	336	2
TAP	63	0	2
TAP	63	96	5
TAP	63	144	5
TAP	63	240	3
TAP	63	264	4
TAP	63	288	3
TAP	63	336	4
STR	64	0	5
SCL	64	0	5	96	96	2
TAP	64	240	4
TAP	64	240	5
TAP	64	336	2
TAP	64	336	3
TAP	65	0	5
TAP	65	48	4
TAP	65	96	3
TAP	65	144	4
TAP	65	144	5
TAP	65	240	2
TAP	65	264	3
TAP	65	288	4
TAP	65	336	5
TAP	66	0	4
TAP	66	0	6
TAP	66	96	5
TAP	66	144	1
TAP	66	144	4
TAP	66	240	3
TAP	66	240	6
TAP	66	336	1
TAP	66	336	4
HLD	67	0	3	768
TAP	67	96	7
TAP	67	144	7
TAP	67	240	6
TAP	67	288	7
TAP	67	336	0
STR	68	0	7
SCL	68	0	7	96	48	4
STR	68	192	7
SCR	68	192	7	96	48	2
STR	69	0	7
SI_	69	0	7	96	192	3
TAP	70	0	0
TAP	70	0	4
TAP	70	48	1
TAP	70	72	5
TAP	70	120	2
TAP	70	144	6
TAP	70	192	3
TAP	70	192	7
TAP	70	240	6
TAP	70	264	2
TAP	70	312	5
TAP	70	336	1
TAP	71	0	4

T_REC_TAP	374
T_REC_BRK	9
T_REC_XTP	0
T_REC_HLD	35
T_REC_XHO	0
T_REC_STR	16
T_REC_BST	0
T_REC_XST	0
T_REC_TTP	0
T_REC_THO	0
T_REC_SLD	16
T_REC_ALL	450
T_NUM_TAP	390
T_NUM_BRK	9
T_NUM_HLD	35
T_NUM_SLD	16
T_NUM_ALL	450
T_JUDGE_TAP	399
T_JUDGE_HLD	116
T_JUDGE_SLD	16
T_JUDGE_ALL	531
TTM_EACHPAIRS	69
TTM_SCR_TAP	195000
TTM_SCR_BRK	23400
TTM_SCR_HLD	35000
TTM_SCR_SLD	24000
TTM_SCR_ALL	277400
TTM_SCR_S	268250
TTM_SCR_SS	276500
TTM_RAT_ACV	10032

