VERSION	0.00.00	1.03.00
FES_MODE	0
BPM_DEF	170.000	170.000	170.000	170.000
MET_DEF	4	4
RESOLUTION	384
CLK_DEF	384
COMPATIBLE_CODE	MA2

BPM	0	0	170.000
MET	0	0	4	4

STR	6	0	7
SI_	6	0	7	96	288	2
STR	7	0	1
SI_	7	0	1	96	288	6
STR	8	0	4
SI_	8	0	4	96	288	7
BRK	9	0	2
STR	10	0	4
SI_	10	0	4	96	48	0
TAP	10	192	5
TAP	10	288	2
TAP	11	0	0
TAP	11	0	7
TAP	11	96	3
TAP	11	96	4
TAP	11	192	2
TAP	11	240	5
TAP	11	288	2
HLD	12	0	2	96
TAP	12	96	5
HLD	12	144	2	96
TAP	12	240	5
HLD	12	288	2	96
TAP	13	0	0
TAP	13	96	3
TAP	13	192	1
TAP	13	192	2
STR	13	288	3
SI_	13	288	3	96	288	0
STR	13	288	4
SI_	13	288	4	96	288	7
TAP	15	0	6
TAP	15	48	1
STR	15	96	6
SI_	15	96	6	96	96	2
TAP	16	0	7
TAP	16	48	2
TAP	16	96	3
TAP	16	192	3
TAP	16	192	4
TAP	16	288	0
TAP	16	336	5
TAP	17	0	4
TAP	17	48	7
TAP	17	96	0
TAP	17	144	4
STR	17	192	3
SCL	17	192	3	96	48	0
TAP	18	0	7
TAP	18	192	4
HLD	19	0	2	192
TAP	20	0	0
TAP	20	192	3
STR	21	0	5
SCL	21	0	5	96	192	2
TAP	22	0	1
TAP	22	96	4
TAP	22	96	5
TAP	22	192	2
TAP	22	288	3
TAP	22	288	4
TAP	23	0	6
TAP	23	96	2
TAP	23	96	3
TAP	23	192	5
STR	23	288	3
SCL	23	288	3	96	96	0
STR	23	288	7
SCL	23	288	7	96	96	4
HLD	24	192	3	96
STR	25	0	4
SCL	25	0	4	96	48	1
STR	26	0	1
SI_	26	0	1	96	48	6
STR	26	144	2
SI_	26	144	2	96	48	5
STR	27	0	6
SI_	27	0	6	96	48	1
STR	27	144	5
SI_	27	144	5	96	48	2
STR	28	0	1
SI_	28	0	1	96	48	6
STR	28	144	2
SI_	28	144	2	96	48	5
STR	29	0	6
SI_	29	0	6	96	48	1
STR	29	144	5
SCR	29	144	5	96	48	0
TAP	30	0	3
HLD	30	0	4	384
TAP	30	192	2
HLD	31	0	3	384
TAP	31	192	5
TAP	32	0	4
TAP	32	192	3
STR	33	0	2
SI_	33	0	2	96	96	5
TAP	34	0	2
HLD	34	96	6	192
TAP	34	192	5
TAP	34	288	1
TAP	35	0	0
TAP	35	0	7
TAP	35	96	2
TAP	35	96	5
TAP	35	192	3
TAP	35	192	4
STR	35	288	1
SCL	35	288	1	96	48	6
HLD	35	288	5	384
STR	36	96	1
SCL	36	96	1	96	48	6
TAP	37	0	1
TAP	37	0	5
TAP	37	96	1
TAP	37	96	5
BRK	37	192	0
BRK	37	192	7
BRK	37	288	0
BRK	37	288	7
STR	38	0	0
SCR	38	0	0	96	192	3
STR	38	0	7
SCL	38	0	7	96	192	4
STR	39	0	3
SI_	39	0	3	96	192	0
STR	39	0	4
SI_	39	0	4	96	192	7
HLD	40	0	0	336
HLD	40	192	7	336
TAP	41	0	1
HLD	41	96	0	192
TAP	41	192	6
TAP	41	288	7
STR	42	0	0
SCR	42	0	0	96	96	3
STR	42	0	6
SCL	42	0	6	96	96	3
STR	43	0	1
SCR	43	0	1	96	96	4
STR	43	0	7
SCL	43	0	7	96	96	4
STR	44	0	4
SI_	44	0	4	96	48	1
STR	44	192	3
SI_	44	192	3	96	48	6
TAP	45	0	2
TAP	45	0	5
TAP	45	96	3
TAP	45	96	4
BRK	45	192	0
BRK	45	192	7
BRK	45	288	0
BRK	45	288	7
STR	46	0	2
SI_	46	0	2	96	192	5
STR	46	0	6
SI_	46	0	6	96	192	1
HLD	47	0	3	192
HLD	47	0	4	192
STR	47	288	3
SI_	47	288	3	96	192	0
STR	47	288	4
SI_	47	288	4	96	192	7
TAP	49	0	1
TAP	49	0	3
STR	49	96	5
SCL	49	96	5	96	96	2
STR	49	96	7
SCR	49	96	7	96	96	2
STR	50	0	7
SI_	50	0	7	96	96	3
BRK	50	192	4
TAP	51	0	0
TAP	51	96	0
TAP	51	192	0
TAP	51	240	0
TAP	51	288	0
TAP	51	336	2
TAP	51	336	7
TAP	52	48	0
TAP	52	48	7
TAP	52	144	1
TAP	52	144	5
TAP	53	0	3
HLD	53	0	6	96
TAP	53	96	2
HLD	53	144	1	96
TAP	53	144	4
TAP	53	240	5
TAP	53	288	3
HLD	53	288	6	288
STR	54	0	0
SI_	54	0	0	96	96	3
STR	54	336	1
SI_	54	336	1	96	48	6
TAP	55	0	1
TAP	55	96	7
BRK	55	144	0
STR	55	336	1
SI_	55	336	1	96	48	6
TAP	56	0	1
TAP	56	96	7
BRK	56	144	0
TAP	57	0	0
HLD	57	0	6	384
TAP	57	96	7
TAP	57	192	0
TAP	57	288	7
STR	58	0	0
SI_	58	0	0	96	48	3
STR	58	144	7
SI_	58	144	7	96	48	4
HLD	59	0	7	96
TAP	59	96	2
TAP	59	144	6
HLD	59	192	0	96
TAP	59	288	5
TAP	59	336	1
HLD	60	0	7	96
TAP	60	96	2
TAP	60	144	6
HLD	60	192	0	96
TAP	60	288	5
TAP	60	336	1
HLD	61	0	1	288
TAP	61	0	5
TAP	61	96	5
TAP	61	192	5
HLD	61	288	5	288
STR	62	0	0
SI_	62	0	0	96	96	3
STR	62	336	1
SI_	62	336	1	96	48	6
TAP	63	0	1
TAP	63	96	7
BRK	63	144	0
STR	63	336	1
SI_	63	336	1	96	48	6
TAP	64	0	1
TAP	64	96	7
BRK	64	144	0
TAP	65	0	2
TAP	65	0	7
TAP	65	96	3
TAP	65	96	4
TAP	65	192	0
TAP	65	192	5
TAP	65	288	3
TAP	65	288	4
STR	66	0	0
SI_	66	0	0	96	48	3
STR	66	0	1
SI_	66	0	1	96	48	6
BRK	66	240	4
BRK	66	240	7
STR	67	0	4
SCL	67	0	4	96	96	1
STR	67	0	7
SCL	67	0	7	96	96	4
STR	68	0	0
SCR	68	0	0	96	96	3
STR	68	0	3
SCR	68	0	3	96	96	6
STR	69	0	4
SCL	69	0	4	96	96	1
STR	69	0	7
SCL	69	0	7	96	96	4
TAP	70	0	2
TAP	70	72	1
TAP	70	144	0
STR	70	192	4
SI_	70	192	4	96	48	7

T_REC_TAP	119
T_REC_BRK	16
T_REC_XTP	0
T_REC_HLD	24
T_REC_XHO	0
T_REC_STR	57
T_REC_BST	0
T_REC_XST	0
T_REC_TTP	0
T_REC_THO	0
T_REC_SLD	57
T_REC_ALL	273
T_NUM_TAP	176
T_NUM_BRK	16
T_NUM_HLD	24
T_NUM_SLD	57
T_NUM_ALL	273
T_JUDGE_TAP	192
T_JUDGE_HLD	104
T_JUDGE_SLD	57
T_JUDGE_ALL	353
TTM_EACHPAIRS	48
TTM_SCR_TAP	88000
TTM_SCR_BRK	41600
TTM_SCR_HLD	24000
TTM_SCR_SLD	85500
TTM_SCR_ALL	239100
TTM_SCR_S	230400
TTM_SCR_SS	237500
TTM_RAT_ACV	10067

