VERSION	0.00.00	1.03.00
FES_MODE	0
BPM_DEF	170.000	170.000	170.000	170.000
MET_DEF	4	4
RESOLUTION	384
CLK_DEF	384
COMPATIBLE_CODE	MA2

BPM	0	0	170.000
MET	0	0	4	4

HLD	2	0	0	192
HLD	2	192	2	192
HLD	3	0	1	192
TAP	3	192	6
TAP	3	288	7
TAP	4	0	6
TAP	4	144	4
TAP	4	240	3
TAP	5	0	1
TAP	5	96	0
TAP	5	192	7
TAP	5	288	6
HLD	6	0	5	144
HLD	6	144	4	144
TAP	6	288	3
TAP	7	0	2
TAP	7	96	1
TAP	7	192	0
TAP	7	288	1
STR	8	0	3
SI_	8	0	3	96	192	0
BRK	9	0	2
BRK	9	0	5
TAP	10	96	0
TAP	10	192	5
TAP	10	288	2
TAP	11	0	7
TAP	11	96	0
TAP	11	192	6
TAP	11	288	1
TAP	12	96	7
TAP	12	192	2
TAP	12	288	5
TAP	13	0	0
TAP	13	96	7
TAP	13	192	1
TAP	13	288	6
TAP	14	96	2
TAP	14	192	3
TAP	14	288	4
TAP	15	0	5
TAP	15	96	4
TAP	15	192	3
TAP	15	288	2
TAP	16	96	2
TAP	16	192	7
TAP	16	288	5
TAP	17	0	0
TAP	17	96	1
TAP	17	192	6
BRK	17	264	0
BRK	17	264	7
TAP	18	96	0
TAP	18	192	0
TAP	18	288	1
HLD	19	0	2	144
HLD	19	144	4	144
TAP	19	288	6
TAP	20	96	7
TAP	20	192	7
TAP	20	288	6
HLD	21	0	5	144
HLD	21	144	3	144
TAP	21	288	1
TAP	22	96	0
TAP	22	192	0
TAP	22	288	0
TAP	23	96	7
TAP	23	192	7
TAP	23	288	7
HLD	24	0	1	192
HLD	24	192	6	192
TAP	25	96	0
TAP	25	192	7
TAP	25	288	0
TAP	26	96	2
TAP	26	192	3
TAP	26	288	2
HLD	27	0	5	144
HLD	27	144	2	144
TAP	27	288	6
TAP	28	96	1
TAP	28	192	0
TAP	28	288	7
HLD	29	0	4	144
HLD	29	144	5	144
TAP	29	288	4
TAP	30	96	6
TAP	30	192	7
TAP	30	288	0
TAP	31	96	1
TAP	31	192	1
TAP	31	288	2
HLD	32	0	0	192
HLD	32	192	5	192
TAP	34	0	6
TAP	34	144	6
TAP	34	288	6
TAP	35	0	1
TAP	35	144	1
TAP	35	288	1
TAP	36	0	5
TAP	36	144	2
TAP	36	288	5
TAP	37	0	1
TAP	37	0	6
BRK	37	96	0
BRK	37	96	7
TAP	38	0	0
TAP	38	96	7
TAP	38	192	1
TAP	38	288	6
TAP	39	0	2
TAP	39	96	5
TAP	39	192	3
TAP	39	288	4
TAP	40	0	1
HLD	40	96	6	192
HLD	42	0	6	144
TAP	42	144	5
TAP	42	288	5
HLD	43	0	1	144
TAP	43	144	2
TAP	43	288	2
HLD	44	0	4	144
TAP	44	144	3
TAP	44	288	3
TAP	45	0	3
TAP	45	0	4
TAP	45	96	2
TAP	45	96	5
HLD	46	0	0	144
HLD	46	144	1	96
TAP	46	240	2
HLD	47	0	0	144
HLD	47	144	7	96
TAP	47	240	6
TAP	47	336	5
TAP	48	48	0
TAP	48	96	0
TAP	48	192	2
TAP	48	240	2
TAP	48	336	0
TAP	48	336	1
TAP	49	48	0
TAP	49	48	7
HLD	49	96	7	192
HLD	50	0	0	192
BRK	50	288	0
TAP	51	0	1
TAP	51	96	1
TAP	51	192	2
TAP	51	288	2
HLD	51	336	1	96
HLD	52	48	0	96
HLD	52	144	7	144
TAP	53	0	6
TAP	53	96	4
TAP	53	144	4
TAP	53	240	2
TAP	53	288	2
TAP	54	0	3
TAP	54	96	4
TAP	54	144	4
TAP	54	240	6
TAP	54	288	6
HLD	55	0	0	96
TAP	55	96	1
HLD	55	144	1	144
TAP	55	288	2
HLD	56	0	3	96
TAP	56	96	2
HLD	56	144	2	144
TAP	56	288	1
TAP	57	0	2
TAP	57	96	4
TAP	57	192	6
TAP	57	288	0
STR	58	0	0
SI_	58	0	0	96	72	5
STR	58	0	1
SI_	58	0	1	96	72	4
TAP	59	0	6
TAP	59	96	6
TAP	59	192	5
TAP	59	288	5
HLD	59	336	6	96
HLD	60	48	7	96
HLD	60	144	0	144
TAP	61	0	1
TAP	61	96	3
TAP	61	144	3
TAP	61	240	5
TAP	61	288	5
TAP	62	0	4
TAP	62	96	3
TAP	62	144	3
TAP	62	240	1
TAP	62	288	1
HLD	63	0	7	96
TAP	63	96	6
HLD	63	144	6	144
TAP	63	288	5
HLD	64	0	4	96
TAP	64	96	5
HLD	64	144	5	144
TAP	64	288	6
TAP	65	0	5
TAP	65	96	3
TAP	65	192	1
TAP	65	288	7
HLD	66	0	0	96
TAP	66	96	1
HLD	66	144	1	96
BRK	66	240	2
TAP	67	0	7
TAP	67	96	6
TAP	67	192	5
TAP	67	288	4
HLD	68	0	3	96
HLD	68	96	5	96
HLD	68	192	1	96
HLD	68	288	7	96
HLD	69	0	0	288
STR	69	288	7
SI_	69	288	7	96	192	4

T_REC_TAP	162
T_REC_BRK	8
T_REC_XTP	0
T_REC_HLD	48
T_REC_XHO	0
T_REC_STR	4
T_REC_BST	0
T_REC_XST	0
T_REC_TTP	0
T_REC_THO	0
T_REC_SLD	4
T_REC_ALL	226
T_NUM_TAP	166
T_NUM_BRK	8
T_NUM_HLD	48
T_NUM_SLD	4
T_NUM_ALL	226
T_JUDGE_TAP	174
T_JUDGE_HLD	141
T_JUDGE_SLD	4
T_JUDGE_ALL	319
TTM_EACHPAIRS	9
TTM_SCR_TAP	83000
TTM_SCR_BRK	20800
TTM_SCR_HLD	48000
TTM_SCR_SLD	6000
TTM_SCR_ALL	157800
TTM_SCR_S	152300
TTM_SCR_SS	157000
TTM_RAT_ACV	10050

