VERSION	0.00.00	1.03.00
FES_MODE	0
BPM_DEF	170.000	170.000	170.000	170.000
MET_DEF	4	4
RESOLUTION	384
CLK_DEF	384
COMPATIBLE_CODE	MA2

BPM	0	0	170.000
MET	0	0	4	4

HLD	6	0	1	192
HLD	8	0	6	192
BRK	9	0	1
BRK	9	0	6
TAP	10	96	1
TAP	10	288	1
TAP	11	96	1
TAP	11	192	1
TAP	11	288	1
TAP	12	96	6
TAP	12	288	6
TAP	13	96	6
TAP	13	192	6
TAP	13	288	6
TAP	14	96	0
TAP	14	288	0
TAP	15	96	0
TAP	15	192	0
TAP	15	288	0
TAP	16	96	7
TAP	16	288	0
TAP	17	96	7
TAP	17	192	0
TAP	17	288	0
TAP	17	288	7
TAP	18	96	6
TAP	18	192	6
TAP	18	288	5
TAP	19	96	6
TAP	19	192	6
TAP	19	288	5
TAP	20	96	1
TAP	20	192	1
TAP	20	288	2
TAP	21	96	1
TAP	21	192	1
TAP	21	288	2
TAP	22	96	3
TAP	22	192	3
TAP	23	96	4
TAP	23	192	4
STR	24	0	3
SI_	24	0	3	96	288	0
TAP	26	96	7
TAP	26	192	6
TAP	26	288	5
TAP	27	96	0
TAP	27	192	1
TAP	27	288	2
TAP	28	96	6
TAP	28	192	5
TAP	28	288	4
TAP	29	96	1
TAP	29	192	2
TAP	29	288	3
TAP	30	96	7
TAP	30	192	7
TAP	31	96	0
TAP	31	192	0
TAP	32	0	7
BRK	32	192	0
TAP	33	192	1
TAP	33	288	1
HLD	34	0	1	144
HLD	35	0	0	144
HLD	36	0	7	144
HLD	37	0	6	144
TAP	38	96	5
TAP	38	192	5
TAP	38	288	5
TAP	39	96	2
TAP	39	96	5
TAP	39	288	2
TAP	40	0	2
HLD	40	96	2	288
TAP	41	192	6
TAP	41	288	6
STR	42	0	6
SI_	42	0	6	96	288	2
TAP	44	0	1
STR	44	96	1
SI_	44	96	1	96	288	5
TAP	46	96	3
TAP	46	288	2
TAP	47	96	4
TAP	47	288	5
TAP	48	96	5
TAP	48	288	4
TAP	49	0	3
BRK	49	96	2
STR	49	288	0
SI_	49	288	0	96	288	4
TAP	51	96	6
TAP	51	192	7
TAP	51	288	6
TAP	52	96	6
TAP	52	192	7
TAP	52	288	6
TAP	53	96	1
TAP	53	192	0
TAP	53	288	1
TAP	54	96	1
TAP	54	192	0
TAP	54	288	1
TAP	55	96	6
TAP	55	288	5
TAP	56	96	4
TAP	56	288	3
TAP	57	96	2
TAP	57	288	1
TAP	58	0	1
BRK	58	144	0
TAP	59	96	7
TAP	59	192	6
TAP	59	288	7
TAP	60	96	7
TAP	60	192	6
TAP	60	288	7
TAP	61	96	0
TAP	61	192	1
TAP	61	288	0
TAP	62	96	0
TAP	62	192	1
TAP	62	288	0
TAP	63	96	1
TAP	63	288	2
TAP	64	96	3
TAP	64	288	4
TAP	65	96	5
TAP	65	288	6
TAP	66	0	6
BRK	66	144	7
TAP	67	0	2
TAP	67	96	2
TAP	67	192	3
TAP	67	288	3
TAP	68	0	4
TAP	68	96	4
TAP	68	192	5
TAP	68	288	5
TAP	69	0	5
STR	69	288	6
SI_	69	288	6	96	288	2

T_REC_TAP	120
T_REC_BRK	6
T_REC_XTP	0
T_REC_HLD	7
T_REC_XHO	0
T_REC_STR	5
T_REC_BST	0
T_REC_XST	0
T_REC_TTP	0
T_REC_THO	0
T_REC_SLD	5
T_REC_ALL	143
T_NUM_TAP	125
T_NUM_BRK	6
T_NUM_HLD	7
T_NUM_SLD	5
T_NUM_ALL	143
T_JUDGE_TAP	131
T_JUDGE_HLD	26
T_JUDGE_SLD	5
T_JUDGE_ALL	162
TTM_EACHPAIRS	3
TTM_SCR_TAP	62500
TTM_SCR_BRK	15600
TTM_SCR_HLD	7000
TTM_SCR_SLD	7500
TTM_SCR_ALL	92600
TTM_SCR_S	89250
TTM_SCR_SS	92000
TTM_RAT_ACV	10065

