VERSION	0.00.00	1.03.00
FES_MODE	0
BPM_DEF	204.000	204.000	204.000	204.000
MET_DEF	4	4
RESOLUTION	384
CLK_DEF	384
COMPATIBLE_CODE	MA2

BPM	0	0	204.000
MET	0	0	4	4

TAP	5	0	5
TAP	5	96	5
TAP	5	192	5
TAP	5	288	5
TAP	5	352	5
TAP	6	0	4
TAP	6	96	3
TAP	6	192	2
TAP	6	288	1
TAP	7	0	0
TAP	7	96	0
TAP	7	192	0
TAP	7	288	0
TAP	7	352	7
TAP	8	0	6
TAP	8	32	5
TAP	8	64	6
TAP	8	96	7
TAP	8	128	0
TAP	8	160	1
TAP	8	192	2
TAP	9	0	1
TAP	9	0	2
TAP	9	96	3
TAP	9	96	4
TAP	9	192	5
TAP	9	192	6
TAP	9	288	7
TAP	9	352	7
TAP	10	0	0
TAP	10	64	0
TAP	10	96	1
TAP	10	160	1
TAP	10	192	2
TAP	10	288	3
TAP	10	352	3
TAP	11	0	4
TAP	11	96	6
TAP	11	160	6
TAP	11	192	5
TAP	11	288	1
TAP	11	352	1
TAP	12	0	2
TAP	12	96	3
TAP	12	96	7
TAP	12	192	1
TAP	12	192	5
TAP	13	0	0
TAP	13	0	7
TAP	13	96	5
TAP	13	96	6
TAP	13	192	3
TAP	13	192	4
TAP	13	288	2
TAP	13	352	2
TAP	14	0	1
TAP	14	64	1
TAP	14	96	0
TAP	14	160	0
TAP	14	192	7
TAP	14	288	5
TAP	14	352	5
TAP	15	0	6
TAP	15	96	1
TAP	15	160	1
TAP	15	192	2
TAP	15	288	3
TAP	15	288	4
TAP	16	0	3
TAP	16	32	2
TAP	16	64	1
TAP	16	96	0
TAP	16	128	7
TAP	16	160	6
TAP	16	192	5
STR	16	288	3
SI_	16	288	3	96	48	6
STR	17	96	4
SI_	17	96	4	96	48	1
STR	17	288	2
SI_	17	288	2	96	48	7
STR	18	96	5
SI_	18	96	5	96	48	0
STR	18	288	7
SCL	18	288	7	96	48	4
STR	19	96	0
SCR	19	96	0	96	48	3
STR	19	288	4
SCR	19	288	4	96	48	7
STR	20	96	0
SCR	20	96	0	96	48	3
STR	20	288	4
SI_	20	288	4	96	48	1
STR	21	0	0
SI_	21	0	0	96	48	5
STR	21	96	7
SI_	21	96	7	96	48	2
STR	21	192	3
SI_	21	192	3	96	48	6
STR	21	288	0
SCR	21	288	0	96	48	3
STR	22	0	0
SI_	22	0	0	96	48	3
STR	22	96	7
SCR	22	96	7	96	48	2
STR	22	192	7
SI_	22	192	7	96	48	4
STR	22	288	3
SCL	22	288	3	96	48	0
STR	23	0	7
SCL	23	0	7	96	48	4
STR	23	96	3
SCL	23	96	3	96	48	0
STR	23	192	7
SCL	23	192	7	96	48	4
TAP	24	0	1
TAP	24	0	2
TAP	24	96	0
TAP	24	96	7
TAP	24	192	5
TAP	24	192	6
TAP	25	0	0
TAP	25	96	1
TAP	25	96	7
TAP	25	192	7
TAP	25	288	0
TAP	25	288	6
TAP	26	0	0
TAP	26	96	1
TAP	26	96	7
TAP	26	192	7
TAP	26	288	0
TAP	26	288	6
TAP	27	0	1
TAP	27	96	2
TAP	27	96	7
TAP	27	192	0
TAP	27	288	3
TAP	27	288	5
TAP	28	0	4
TAP	28	96	2
TAP	28	96	4
TAP	28	192	3
TAP	28	288	3
TAP	28	288	5
TAP	29	0	7
TAP	29	96	0
TAP	29	96	6
TAP	29	192	0
TAP	29	288	1
TAP	29	288	7
TAP	30	0	7
TAP	30	96	0
TAP	30	96	6
TAP	30	192	0
TAP	30	288	1
TAP	30	288	7
TAP	31	0	6
TAP	31	96	0
TAP	31	96	5
TAP	31	192	1
TAP	31	288	2
TAP	31	288	7
TAP	32	0	6
TAP	32	96	0
TAP	32	96	4
TAP	32	192	1
TAP	32	192	5
TAP	32	288	2
TAP	32	288	6
HLD	33	0	7	288
TAP	33	96	6
TAP	33	192	0
TAP	33	288	1
HLD	33	352	1	96
TAP	34	64	2
TAP	34	96	3
TAP	34	160	1
TAP	34	192	0
TAP	34	256	1
TAP	34	288	2
TAP	34	352	3
HLD	35	0	4	288
TAP	35	96	5
TAP	35	192	3
TAP	35	288	2
HLD	35	352	2	96
TAP	36	64	1
TAP	36	96	0
TAP	36	160	0
TAP	36	192	7
STR	37	0	0
SI_	37	0	0	96	48	3
TAP	37	96	1
STR	37	192	1
SI_	37	192	1	96	48	5
TAP	37	288	4
STR	38	0	4
SI_	38	0	4	96	48	7
TAP	38	96	5
STR	38	192	5
SI_	38	192	5	96	48	1
TAP	38	288	0
STR	39	0	0
SI_	39	0	0	96	48	4
TAP	39	96	7
STR	39	192	7
SI_	39	192	7	96	48	3
TAP	39	288	2
STR	40	0	2
SI_	40	0	2	96	48	7
TAP	40	96	5
STR	40	192	5
SI_	40	192	5	96	48	0
TAP	40	288	7
TAP	41	0	6
TAP	41	96	1
TAP	41	96	5
TAP	41	192	2
TAP	41	288	3
TAP	41	288	7
TAP	42	0	6
TAP	42	64	0
TAP	42	96	1
TAP	42	160	2
TAP	42	192	0
TAP	42	288	7
TAP	43	0	1
TAP	43	0	6
TAP	43	96	0
TAP	43	96	4
TAP	43	192	1
TAP	43	192	6
TAP	43	288	3
TAP	43	288	7
STR	44	0	2
SI_	44	0	2	96	48	6
STR	44	96	0
SI_	44	96	0	96	48	4
STR	44	192	7
SI_	44	192	7	96	48	4
STR	44	288	0
SI_	44	288	0	96	288	3
TAP	45	0	4
TAP	45	96	5
TAP	45	192	6
TAP	45	288	7
TAP	46	0	0
HLD	46	0	4	288
TAP	46	96	7
TAP	46	192	6
STR	46	288	5
SI_	46	288	5	96	48	2
TAP	47	0	7
STR	47	96	1
SI_	47	96	1	96	48	6
TAP	47	192	0
TAP	47	288	1
TAP	48	0	2
HLD	48	0	6	288
TAP	48	96	5
TAP	48	192	4
STR	48	288	3
SI_	48	288	3	96	48	7
STR	49	96	4
SI_	49	96	4	96	48	0
STR	49	288	0
SI_	49	288	0	96	48	5
STR	49	288	7
SI_	49	288	7	96	48	2
STR	50	96	3
SCL	50	96	3	96	48	0
STR	50	96	4
SCR	50	96	4	96	48	7
TAP	50	288	1
TAP	50	288	6
BRK	51	0	0
BRK	51	0	4
BRK	51	96	2
BRK	51	96	6
BRK	51	192	1
BRK	51	192	5
BRK	51	288	3
BRK	51	288	7
BRK	52	0	1
BRK	52	0	6
HLD	53	0	0	192
HLD	53	192	4	192
HLD	54	0	2	192
HLD	54	192	6	192
HLD	55	0	0	160
TAP	55	96	1
TAP	55	160	7
HLD	55	192	6	96
TAP	55	288	5
TAP	55	352	0
TAP	56	0	1
TAP	56	96	0
TAP	56	96	6
TAP	56	192	5
TAP	56	192	7
TAP	56	288	0
TAP	56	352	1
HLD	57	0	2	192
TAP	57	96	1
HLD	57	192	0	160
TAP	57	288	7
TAP	57	352	7
HLD	58	0	6	192
TAP	58	96	5
TAP	58	192	4
STR	58	288	0
SI_	58	288	0	96	32	3
TAP	58	352	7
STR	59	96	7
SI_	59	96	7	96	32	4
TAP	59	160	0
TAP	59	288	1
TAP	59	352	7
BRK	60	0	6
BRK	60	96	0
BRK	60	96	7
BRK	60	192	0
BRK	60	192	1
TAP	60	288	7
TAP	60	352	7
TAP	61	0	2
TAP	61	64	2
TAP	61	96	5
TAP	61	160	5
TAP	61	192	1
TAP	61	256	1
TAP	61	288	6
TAP	61	352	6
TAP	62	0	3
TAP	62	64	3
TAP	62	96	4
TAP	62	160	4
TAP	62	192	0
TAP	62	224	7
TAP	62	256	0
TAP	62	288	6
TAP	62	320	1
TAP	62	352	6
TAP	63	0	2
TAP	63	64	4
TAP	63	96	3
TAP	63	160	3
TAP	63	192	6
TAP	63	256	6
TAP	63	288	0
TAP	63	352	0
BRK	64	0	7
TAP	64	64	7
BRK	64	96	0
TAP	64	160	0
BRK	64	192	7
STR	64	288	6
SI_	64	288	6	96	32	3
STR	64	352	7
SI_	64	352	7	96	32	2
STR	65	96	0
SI_	65	96	0	96	32	5
STR	65	160	1
SI_	65	160	1	96	32	4
STR	65	288	3
SI_	65	288	3	96	32	6
STR	65	352	2
SI_	65	352	2	96	32	7
STR	66	96	5
SI_	66	96	5	96	32	0
STR	66	160	4
SI_	66	160	4	96	32	1
STR	66	288	3
SCR	66	288	3	96	96	6
TAP	67	0	0
STR	67	96	7
SCR	67	96	7	96	96	2
TAP	67	192	6
TAP	67	288	5
BRK	68	0	2
BRK	68	0	4
BRK	68	96	3
BRK	68	96	5
BRK	68	192	2
BRK	68	192	4
TAP	68	288	1
TAP	68	352	0
TAP	69	0	7
TAP	69	64	7
TAP	69	96	6
TAP	69	160	0
TAP	69	192	1
TAP	69	256	0
TAP	69	288	7
TAP	69	320	6
TAP	69	352	5
TAP	70	0	4
TAP	70	64	2
TAP	70	96	3
TAP	70	160	5
TAP	70	192	4
TAP	70	256	5
TAP	70	288	4
TAP	70	320	3
TAP	70	352	2
TAP	71	0	1
TAP	71	96	0
TAP	71	160	7
TAP	71	192	6
TAP	71	288	0
TAP	71	352	1
BRK	72	0	7
TAP	72	64	5
BRK	72	96	0
TAP	72	160	2
BRK	72	192	7
TAP	72	288	6
TAP	72	352	7
TAP	73	0	0
TAP	73	64	0
TAP	73	96	1
TAP	73	160	7
TAP	73	192	6
TAP	73	256	7
TAP	73	288	0
TAP	73	320	1
TAP	73	352	2
TAP	74	0	3
TAP	74	64	5
TAP	74	96	4
TAP	74	160	2
TAP	74	192	3
TAP	74	256	2
TAP	74	288	3
TAP	74	320	4
TAP	74	352	5
STR	75	0	6
SCL	75	0	6	96	48	3
STR	75	192	7
SCR	75	192	7	96	48	2
STR	75	288	2
SCR	75	288	2	96	48	5
TAP	76	96	0
TAP	76	96	7
TAP	76	192	1
TAP	76	192	6
TAP	77	0	0
TAP	77	0	4
TAP	77	96	2
TAP	77	96	5
TAP	77	192	3
TAP	77	192	7
TAP	77	288	1
TAP	77	288	6
TAP	78	0	1
TAP	78	0	5
TAP	78	96	0
TAP	78	96	3
TAP	78	192	2
TAP	78	192	6
STR	78	288	4
SI_	78	288	4	96	32	1
TAP	78	288	7
STR	79	96	6
SI_	79	96	6	96	32	3
STR	79	160	0
SI_	79	160	0	96	32	3
STR	79	288	4
SI_	79	288	4	96	32	1
STR	80	0	3
SI_	80	0	3	96	32	6
STR	80	96	4
SI_	80	96	4	96	32	0
HLD	81	0	1	288
TAP	81	0	5
TAP	81	96	4
TAP	81	192	3
TAP	81	288	2
TAP	82	0	0
HLD	82	0	7	96
HLD	82	96	6	96
HLD	82	192	5	96
TAP	82	288	4
HLD	83	0	2	192
TAP	83	0	3
TAP	83	96	6
HLD	83	192	7	192
TAP	83	288	0
TAP	84	0	1
BRK	84	96	0
BRK	84	96	4
BRK	84	192	2
BRK	84	192	6
BRK	84	288	0
BRK	84	288	4

T_REC_TAP	320
T_REC_BRK	33
T_REC_XTP	0
T_REC_HLD	21
T_REC_XHO	0
T_REC_STR	61
T_REC_BST	0
T_REC_XST	0
T_REC_TTP	0
T_REC_THO	0
T_REC_SLD	61
T_REC_ALL	496
T_NUM_TAP	381
T_NUM_BRK	33
T_NUM_HLD	21
T_NUM_SLD	61
T_NUM_ALL	496
T_JUDGE_TAP	414
T_JUDGE_HLD	82
T_JUDGE_SLD	61
T_JUDGE_ALL	557
TTM_EACHPAIRS	68
TTM_SCR_TAP	190500
TTM_SCR_BRK	85800
TTM_SCR_HLD	21000
TTM_SCR_SLD	91500
TTM_SCR_ALL	388800
TTM_SCR_S	373950
TTM_SCR_SS	385500
TTM_RAT_ACV	10085

