VERSION	0.00.00	1.03.00
FES_MODE	0
BPM_DEF	204.000	204.000	204.000	204.000
MET_DEF	4	4
RESOLUTION	384
CLK_DEF	384
COMPATIBLE_CODE	MA2

BPM	0	0	204.000
MET	0	0	4	4

TAP	1	288	2
TAP	2	288	2
TAP	3	288	2
TAP	4	288	2
TAP	5	0	4
TAP	5	96	4
TAP	5	192	4
TAP	5	288	4
TAP	6	0	4
TAP	6	96	4
HLD	6	192	4	96
TAP	6	288	2
TAP	6	352	5
TAP	7	0	3
TAP	7	96	3
HLD	7	192	3	96
TAP	7	288	5
TAP	7	352	2
TAP	8	0	4
TAP	8	96	3
TAP	8	192	5
TAP	9	0	7
TAP	9	96	2
HLD	9	192	1	96
TAP	10	0	6
TAP	10	96	0
HLD	10	192	3	96
STR	11	0	3
SI_	11	0	3	96	96	0
HLD	11	192	6	96
STR	12	0	4
SI_	12	0	4	96	96	7
HLD	12	192	1	96
TAP	13	0	3
TAP	13	96	0
HLD	13	192	2	96
TAP	14	0	1
TAP	14	96	2
TAP	14	96	6
STR	14	192	0
SI_	14	192	0	96	384	5
TAP	16	0	4
TAP	16	0	5
TAP	16	96	4
TAP	16	96	5
BRK	16	192	4
BRK	16	192	5
TAP	17	0	7
TAP	17	96	2
HLD	17	192	1	96
TAP	18	0	6
TAP	18	96	0
HLD	18	192	3	384
TAP	19	0	7
TAP	19	96	7
TAP	19	192	7
HLD	19	288	5	288
TAP	20	0	2
TAP	20	96	2
HLD	21	0	0	96
HLD	21	96	7	96
HLD	21	192	4	96
TAP	21	288	3
TAP	22	0	1
STR	22	96	1
SI_	22	96	1	96	192	6
STR	22	96	2
SI_	22	96	2	96	192	5
TAP	23	288	1
TAP	23	288	6
TAP	24	0	3
TAP	24	0	4
TAP	24	96	2
TAP	24	96	5
TAP	24	192	3
TAP	24	192	4
TAP	25	0	3
TAP	25	64	3
TAP	25	96	5
TAP	25	192	3
TAP	25	256	3
TAP	25	288	5
TAP	26	0	4
TAP	26	64	4
TAP	26	96	2
TAP	26	192	4
TAP	26	256	4
TAP	26	288	2
TAP	27	0	0
TAP	27	64	0
TAP	27	96	6
TAP	27	192	0
TAP	27	256	0
TAP	27	288	6
TAP	28	0	7
TAP	28	64	7
TAP	28	96	1
TAP	28	192	7
TAP	28	256	7
STR	28	288	1
SI_	28	288	1	96	192	6
TAP	30	0	0
TAP	30	96	0
HLD	30	192	6	288
HLD	31	0	2	96
TAP	31	192	2
TAP	31	192	6
TAP	32	0	1
TAP	32	96	6
STR	32	192	2
SCR	32	192	2	96	96	5
TAP	33	96	7
TAP	33	192	0
HLD	33	288	7	96
HLD	34	0	4	96
STR	34	96	6
SCL	34	96	6	96	192	3
TAP	35	96	0
TAP	35	192	0
HLD	36	0	2	96
HLD	36	0	5	96
HLD	36	192	1	96
HLD	36	192	6	96
HLD	37	0	3	192
TAP	37	96	4
HLD	37	192	4	192
TAP	37	288	3
HLD	38	0	3	192
TAP	38	96	4
HLD	38	192	4	192
TAP	38	288	3
HLD	39	0	3	96
TAP	39	192	3
TAP	39	192	4
TAP	40	0	4
TAP	40	0	5
TAP	40	96	3
TAP	40	96	4
TAP	40	192	2
TAP	40	192	3
TAP	41	0	2
TAP	41	96	3
TAP	41	192	4
TAP	41	288	5
TAP	42	0	2
TAP	42	0	6
TAP	42	96	1
TAP	42	96	5
HLD	42	192	0	96
HLD	42	192	4	480
TAP	43	0	0
TAP	43	96	5
TAP	43	192	0
TAP	43	288	5
STR	44	0	3
SI_	44	0	3	96	192	0
TAP	45	0	6
TAP	45	0	7
TAP	45	96	0
TAP	45	96	7
TAP	45	192	0
TAP	45	192	1
TAP	45	288	1
TAP	45	288	2
STR	46	0	0
SI_	46	0	0	96	192	3
TAP	47	0	5
TAP	47	0	6
TAP	47	96	4
TAP	47	96	5
TAP	47	192	3
TAP	47	192	4
TAP	47	288	2
TAP	47	288	3
TAP	48	0	5
BRK	48	192	1
TAP	49	0	6
TAP	49	96	5
TAP	49	192	1
TAP	49	288	2
TAP	50	0	7
TAP	50	96	7
TAP	50	192	7
HLD	51	0	1	192
HLD	51	0	6	192
STR	51	288	3
SI_	51	288	3	96	192	0
STR	51	288	4
SI_	51	288	4	96	192	7
HLD	53	0	3	288
TAP	53	0	5
STR	54	0	2
SCR	54	0	2	96	96	5
STR	54	192	1
SCL	54	192	1	96	96	6
STR	55	0	3
SCL	55	0	3	96	96	0
STR	55	192	4
SCR	55	192	4	96	96	7
HLD	56	0	1	192
HLD	56	192	6	672
TAP	57	0	3
TAP	57	96	5
TAP	57	192	4
TAP	57	288	2
TAP	58	0	3
TAP	58	96	1
TAP	58	192	1
TAP	58	192	6
TAP	58	288	3
TAP	58	288	4
TAP	59	0	3
TAP	59	0	4
TAP	59	96	3
TAP	59	96	4
TAP	59	192	4
TAP	59	192	5
TAP	59	288	2
TAP	59	288	3
HLD	60	0	2	96
TAP	60	0	3
TAP	60	96	3
TAP	60	192	2
TAP	60	192	7
TAP	61	0	3
TAP	61	96	1
TAP	61	192	4
HLD	61	288	6	384
TAP	62	0	3
TAP	62	96	0
TAP	62	192	3
TAP	62	288	0
HLD	63	0	1	96
TAP	63	0	5
TAP	63	96	0
TAP	63	192	2
HLD	63	192	6	96
TAP	63	288	7
STR	64	0	4
SCL	64	0	4	96	96	1
HLD	64	0	5	192
TAP	65	0	5
TAP	65	96	5
HLD	65	192	5	480
TAP	66	0	1
TAP	66	96	1
HLD	66	192	1	96
TAP	67	0	2
TAP	67	0	5
TAP	67	96	3
TAP	67	96	4
TAP	67	192	0
TAP	67	192	7
TAP	67	288	3
TAP	67	288	4
TAP	68	0	2
TAP	68	0	5
TAP	68	96	1
TAP	68	96	6
TAP	68	192	3
TAP	68	192	4
HLD	69	0	3	288
TAP	69	0	5
STR	70	0	2
SCR	70	0	2	96	96	5
STR	70	192	1
SCL	70	192	1	96	96	6
STR	71	0	3
SCL	71	0	3	96	96	0
STR	71	192	4
SCR	71	192	4	96	96	7
HLD	72	0	1	192
HLD	72	192	6	672
TAP	73	0	3
TAP	73	96	5
TAP	73	192	4
TAP	73	288	2
TAP	74	0	3
TAP	74	96	1
TAP	74	192	1
TAP	74	192	6
TAP	74	288	3
TAP	74	288	4
TAP	75	0	3
TAP	75	0	4
TAP	75	96	3
TAP	75	96	4
TAP	75	192	4
TAP	75	192	5
TAP	75	288	2
TAP	75	288	3
HLD	76	0	2	96
TAP	76	0	3
TAP	76	96	3
TAP	76	192	2
TAP	76	192	7
TAP	77	0	3
TAP	77	96	1
TAP	77	192	4
HLD	77	288	6	384
TAP	78	0	3
TAP	78	96	0
TAP	78	192	3
TAP	78	288	0
HLD	79	0	1	96
TAP	79	0	5
TAP	79	96	0
TAP	79	192	2
HLD	79	192	6	96
TAP	79	288	7
STR	80	0	4
SCL	80	0	4	96	96	1
HLD	80	0	5	192
TAP	81	0	5
TAP	81	96	5
HLD	81	192	5	480
TAP	82	0	1
TAP	82	96	1
HLD	82	192	1	96
TAP	83	0	2
TAP	83	0	5
TAP	83	96	3
TAP	83	96	4
TAP	83	192	0
TAP	83	192	7
TAP	83	288	3
TAP	83	288	4
TAP	84	0	2
TAP	84	0	5
TAP	84	96	1
TAP	84	96	6
TAP	84	192	3
TAP	84	192	4
BRK	84	288	1
BRK	84	288	6

T_REC_TAP	236
T_REC_BRK	5
T_REC_XTP	0
T_REC_HLD	50
T_REC_XHO	0
T_REC_STR	22
T_REC_BST	0
T_REC_XST	0
T_REC_TTP	0
T_REC_THO	0
T_REC_SLD	22
T_REC_ALL	335
T_NUM_TAP	258
T_NUM_BRK	5
T_NUM_HLD	50
T_NUM_SLD	22
T_NUM_ALL	335
T_JUDGE_TAP	263
T_JUDGE_HLD	202
T_JUDGE_SLD	22
T_JUDGE_ALL	487
TTM_EACHPAIRS	68
TTM_SCR_TAP	129000
TTM_SCR_BRK	13000
TTM_SCR_HLD	50000
TTM_SCR_SLD	33000
TTM_SCR_ALL	225000
TTM_SCR_S	217800
TTM_SCR_SS	224500
TTM_RAT_ACV	10022

