VERSION	0.00.00	1.03.00
FES_MODE	0
BPM_DEF	204.000	204.000	204.000	204.000
MET_DEF	4	4
RESOLUTION	384
CLK_DEF	384
COMPATIBLE_CODE	MA2

BPM	0	0	204.000
MET	0	0	4	4

TAP	5	0	1
TAP	5	96	6
TAP	5	192	0
TAP	5	288	7
TAP	6	0	1
TAP	6	96	6
TAP	6	192	0
TAP	6	288	1
TAP	7	0	7
TAP	7	96	6
TAP	7	192	1
TAP	7	288	6
TAP	8	0	0
TAP	8	96	6
TAP	8	192	0
TAP	8	192	7
TAP	9	0	1
TAP	9	96	2
TAP	9	192	3
TAP	9	288	4
TAP	10	0	5
TAP	10	96	6
TAP	10	192	7
TAP	11	0	7
TAP	11	192	0
TAP	12	0	1
TAP	12	0	6
TAP	12	96	0
TAP	12	96	7
TAP	12	192	1
TAP	12	192	6
TAP	13	0	5
TAP	13	96	6
TAP	13	192	7
TAP	13	288	0
TAP	14	0	1
TAP	14	96	2
TAP	14	192	3
TAP	15	0	3
TAP	15	192	4
TAP	16	0	2
TAP	16	96	3
BRK	16	192	3
BRK	16	192	4
TAP	17	0	6
TAP	17	96	5
TAP	17	192	4
TAP	17	288	3
TAP	18	0	2
TAP	18	96	1
TAP	18	192	0
TAP	19	0	2
TAP	19	0	5
TAP	19	192	1
TAP	19	192	6
TAP	20	0	7
TAP	20	96	0
TAP	20	192	7
TAP	21	0	1
TAP	21	96	2
TAP	21	192	3
TAP	21	288	4
TAP	22	0	5
TAP	22	96	6
TAP	22	192	7
TAP	23	0	1
TAP	23	192	6
TAP	24	0	0
TAP	24	0	7
STR	24	96	0
SI_	24	96	0	96	48	3
STR	24	96	7
SI_	24	96	7	96	48	4
HLD	25	0	1	192
HLD	25	192	6	192
TAP	26	0	0
TAP	26	96	7
TAP	26	192	0
TAP	27	0	1
TAP	27	192	2
TAP	28	0	4
TAP	28	96	5
TAP	28	192	6
TAP	28	288	7
HLD	29	0	2	192
HLD	29	192	5	192
TAP	30	0	3
TAP	30	96	4
TAP	30	192	3
TAP	31	0	2
TAP	31	192	1
TAP	32	0	7
TAP	32	96	6
TAP	32	192	5
TAP	32	288	4
HLD	33	0	4	288
TAP	34	0	5
TAP	34	96	6
TAP	34	192	7
TAP	34	288	0
HLD	35	0	1	192
TAP	35	192	2
TAP	36	0	3
TAP	36	96	4
TAP	36	192	3
HLD	37	0	1	96
TAP	37	96	2
HLD	37	192	6	96
TAP	37	288	5
TAP	38	0	0
TAP	38	96	7
TAP	38	192	0
TAP	39	0	1
TAP	39	192	6
TAP	40	0	4
TAP	40	96	2
TAP	40	192	5
TAP	40	288	2
HLD	41	0	1	192
HLD	41	192	4	192
TAP	42	0	2
TAP	42	96	3
TAP	42	192	2
TAP	43	0	0
TAP	43	0	5
TAP	43	192	6
TAP	43	192	7
TAP	44	0	4
TAP	44	96	3
TAP	44	192	2
TAP	44	288	1
TAP	45	0	0
TAP	45	0	7
TAP	45	192	0
TAP	45	192	7
TAP	46	0	2
TAP	46	96	3
TAP	46	192	4
TAP	46	288	5
TAP	47	0	3
TAP	47	0	4
TAP	47	192	3
TAP	47	192	4
TAP	48	0	1
TAP	48	96	0
TAP	48	192	7
TAP	48	288	6
TAP	49	0	6
TAP	49	0	7
TAP	49	192	0
TAP	49	192	1
TAP	50	0	2
TAP	50	96	3
TAP	50	192	4
TAP	51	0	0
TAP	51	0	7
TAP	51	96	1
TAP	51	96	6
TAP	51	192	2
TAP	51	192	5
TAP	51	288	3
TAP	51	288	4
TAP	52	0	2
TAP	52	0	5
BRK	52	192	1
BRK	52	192	6
TAP	53	0	5
TAP	53	96	4
TAP	53	192	3
TAP	53	288	2
TAP	54	0	1
TAP	54	96	0
TAP	54	192	6
TAP	54	192	7
TAP	54	288	0
TAP	55	0	1
TAP	55	96	2
TAP	55	192	3
TAP	55	288	4
TAP	56	0	4
TAP	56	0	5
TAP	56	96	4
TAP	56	96	5
TAP	56	192	4
TAP	56	192	5
TAP	57	0	6
TAP	57	96	5
TAP	57	192	4
TAP	57	288	3
TAP	58	0	2
TAP	58	96	1
TAP	58	192	0
TAP	58	192	7
TAP	58	288	6
TAP	59	0	7
TAP	59	96	0
TAP	59	192	1
TAP	59	288	2
TAP	60	0	3
TAP	60	0	4
BRK	60	192	1
BRK	60	192	6
TAP	60	288	1
TAP	61	0	1
TAP	61	96	2
TAP	61	192	2
TAP	61	288	3
TAP	62	0	4
TAP	62	96	5
TAP	62	96	6
TAP	62	192	5
TAP	62	192	6
TAP	63	0	6
TAP	63	96	5
TAP	63	192	4
TAP	63	288	3
TAP	64	0	1
TAP	64	0	2
TAP	64	96	1
TAP	64	96	2
TAP	64	192	1
TAP	64	192	2
TAP	65	0	0
TAP	65	96	2
TAP	65	192	4
TAP	65	288	6
TAP	66	0	7
TAP	66	96	5
TAP	66	192	3
TAP	66	288	1
TAP	67	0	2
TAP	67	96	3
TAP	67	192	4
TAP	67	288	3
TAP	68	0	3
TAP	68	0	4
BRK	68	192	1
BRK	68	192	6
TAP	68	288	6
TAP	69	0	6
TAP	69	96	5
TAP	69	192	5
TAP	69	288	4
TAP	69	336	3
TAP	70	0	4
TAP	70	96	2
TAP	70	96	3
TAP	70	192	2
TAP	70	192	3
TAP	70	288	1
TAP	71	0	0
TAP	71	96	7
TAP	71	192	6
TAP	71	288	7
TAP	72	0	0
TAP	72	0	1
TAP	72	96	1
TAP	72	96	2
TAP	72	192	2
TAP	72	192	3
TAP	73	0	4
TAP	73	96	5
TAP	73	192	6
TAP	73	288	5
TAP	74	0	4
TAP	74	96	3
TAP	74	192	2
TAP	74	288	1
TAP	75	0	0
TAP	75	96	7
TAP	75	144	0
TAP	75	192	7
TAP	75	288	0
TAP	76	0	0
TAP	76	0	1
BRK	76	192	6
BRK	76	192	7
TAP	76	288	1
TAP	77	0	1
TAP	77	96	3
TAP	77	192	3
TAP	77	288	4
TAP	78	0	4
TAP	78	96	6
TAP	78	192	6
TAP	78	288	7
TAP	79	0	5
TAP	79	96	3
TAP	79	192	1
TAP	79	288	0
TAP	80	0	6
TAP	80	0	7
TAP	80	96	5
TAP	80	96	6
TAP	80	192	4
TAP	80	192	5
TAP	81	0	3
TAP	81	96	2
TAP	81	192	1
TAP	81	288	0
TAP	82	0	7
TAP	82	96	0
TAP	82	192	1
TAP	82	288	2
TAP	83	0	3
TAP	83	96	4
TAP	83	192	3
TAP	83	288	2
BRK	84	0	0
BRK	84	0	1
BRK	84	96	6
BRK	84	96	7
BRK	84	192	1
BRK	84	192	6

T_REC_TAP	284
T_REC_BRK	16
T_REC_XTP	0
T_REC_HLD	10
T_REC_XHO	0
T_REC_STR	2
T_REC_BST	0
T_REC_XST	0
T_REC_TTP	0
T_REC_THO	0
T_REC_SLD	2
T_REC_ALL	314
T_NUM_TAP	286
T_NUM_BRK	16
T_NUM_HLD	10
T_NUM_SLD	2
T_NUM_ALL	314
T_JUDGE_TAP	302
T_JUDGE_HLD	38
T_JUDGE_SLD	2
T_JUDGE_ALL	342
TTM_EACHPAIRS	50
TTM_SCR_TAP	143000
TTM_SCR_BRK	41600
TTM_SCR_HLD	10000
TTM_SCR_SLD	3000
TTM_SCR_ALL	197600
TTM_SCR_S	190150
TTM_SCR_SS	196000
TTM_RAT_ACV	10081

