VERSION	0.00.00	1.03.00
FES_MODE	0
BPM_DEF	204.000	204.000	204.000	204.000
MET_DEF	4	4
RESOLUTION	384
CLK_DEF	384
COMPATIBLE_CODE	MA2

BPM	0	0	204.000
MET	0	0	4	4

TAP	3	0	2
TAP	3	192	2
TAP	4	0	2
TAP	4	192	2
HLD	7	0	0	384
HLD	7	0	6	384
STR	9	0	0
SI_	9	0	0	96	192	3
TAP	10	192	1
TAP	11	0	3
TAP	11	192	4
TAP	12	192	2
TAP	12	192	5
TAP	13	192	3
TAP	14	0	6
TAP	14	192	0
TAP	16	0	5
TAP	16	96	5
TAP	16	192	5
TAP	17	192	3
HLD	18	192	4	192
HLD	20	0	2	192
HLD	20	0	5	192
TAP	21	0	0
TAP	21	192	3
TAP	22	0	1
TAP	23	192	0
TAP	23	192	7
TAP	24	0	2
TAP	24	0	5
TAP	24	96	3
TAP	24	96	4
TAP	24	192	2
TAP	24	192	5
TAP	25	0	2
TAP	25	192	2
TAP	26	0	5
TAP	26	192	5
TAP	27	0	0
TAP	27	192	0
TAP	28	0	7
TAP	28	192	7
HLD	29	0	1	192
HLD	29	0	6	192
BRK	30	0	0
BRK	30	96	0
TAP	30	192	6
STR	32	0	6
SI_	32	0	6	96	192	1
STR	34	0	4
SI_	34	0	4	96	192	1
HLD	36	0	1	192
HLD	36	0	6	192
TAP	37	0	2
TAP	37	192	2
TAP	38	0	2
TAP	38	192	2
TAP	39	0	4
TAP	39	0	5
TAP	39	192	2
TAP	39	192	3
TAP	40	0	4
TAP	40	0	5
TAP	40	192	2
TAP	40	192	3
STR	41	192	1
SI_	41	192	1	96	192	5
TAP	43	0	0
TAP	43	192	0
TAP	45	0	6
TAP	45	192	0
HLD	46	0	6	192
BRK	48	192	1
TAP	49	0	0
TAP	49	192	0
TAP	50	0	7
TAP	50	192	7
STR	51	288	3
SI_	51	288	3	96	192	0
STR	51	288	4
SI_	51	288	4	96	192	7
TAP	55	96	1
TAP	55	288	6
HLD	56	0	6	192
TAP	57	0	5
TAP	57	192	1
TAP	58	0	5
TAP	58	192	1
TAP	58	192	6
TAP	59	192	5
TAP	59	288	2
TAP	60	0	2
TAP	60	192	0
TAP	60	192	2
HLD	62	0	6	192
TAP	63	0	1
TAP	63	192	6
BRK	64	192	1
HLD	65	192	1	192
TAP	67	0	1
TAP	67	0	6
HLD	68	0	1	192
HLD	68	0	6	192
STR	69	288	6
SI_	69	288	6	96	192	1
TAP	71	96	1
TAP	71	288	6
HLD	72	0	6	192
TAP	73	0	5
TAP	73	192	1
TAP	74	0	5
TAP	74	192	1
TAP	74	192	6
TAP	75	192	5
TAP	75	288	2
TAP	76	0	2
TAP	76	192	0
TAP	76	192	2
HLD	78	0	6	192
TAP	79	0	1
TAP	79	192	6
BRK	80	192	1
HLD	81	192	1	192
TAP	83	0	1
TAP	83	0	6
HLD	84	0	1	192
HLD	84	0	6	192

T_REC_TAP	88
T_REC_BRK	5
T_REC_XTP	0
T_REC_HLD	20
T_REC_XHO	0
T_REC_STR	7
T_REC_BST	0
T_REC_XST	0
T_REC_TTP	0
T_REC_THO	0
T_REC_SLD	7
T_REC_ALL	127
T_NUM_TAP	95
T_NUM_BRK	5
T_NUM_HLD	20
T_NUM_SLD	7
T_NUM_ALL	127
T_JUDGE_TAP	100
T_JUDGE_HLD	88
T_JUDGE_SLD	7
T_JUDGE_ALL	195
TTM_EACHPAIRS	22
TTM_SCR_TAP	47500
TTM_SCR_BRK	13000
TTM_SCR_HLD	20000
TTM_SCR_SLD	10500
TTM_SCR_ALL	91000
TTM_SCR_S	87800
TTM_SCR_SS	90500
TTM_RAT_ACV	10055

