VERSION	0.00.00	1.03.00
FES_MODE	0
BPM_DEF	142.000	142.000	142.000	142.000
MET_DEF	4	4
RESOLUTION	384
CLK_DEF	384
COMPATIBLE_CODE	MA2

BPM	0	0	142.000
MET	0	0	4	4

STR	2	0	0
SI_	2	0	0	96	24	3
STR	2	0	6
SI_	2	0	6	96	24	1
STR	2	144	2
SI_	2	144	2	96	48	5
TAP	3	0	0
TAP	3	48	1
TAP	3	96	2
TAP	3	144	1
TAP	3	192	7
TAP	3	240	6
TAP	3	288	5
TAP	3	336	6
TAP	4	0	0
TAP	4	48	1
TAP	4	96	2
TAP	4	144	1
TAP	4	192	7
TAP	4	240	6
TAP	4	288	5
TAP	4	336	6
TAP	5	0	0
TAP	5	48	1
TAP	5	96	3
TAP	5	144	2
TAP	5	192	7
TAP	5	240	6
TAP	5	288	4
TAP	5	336	5
TAP	6	0	0
TAP	6	48	1
TAP	6	96	3
TAP	6	144	2
TAP	6	192	7
TAP	6	240	6
TAP	6	288	4
TAP	6	336	5
STR	7	0	0
SI_	7	0	0	96	48	3
TAP	7	192	7
TAP	7	264	6
STR	7	336	5
SI_	7	336	5	96	48	2
TAP	8	192	1
TAP	8	216	6
TAP	8	264	6
TAP	8	288	1
TAP	9	0	7
TAP	9	48	7
TAP	9	96	1
TAP	9	144	3
TAP	9	192	0
TAP	9	240	0
TAP	9	288	6
TAP	9	336	4
TAP	10	0	7
TAP	10	48	1
TAP	10	96	3
TAP	10	144	5
STR	10	192	7
SI_	10	192	7	96	48	3
STR	11	0	1
SI_	11	0	1	96	48	6
TAP	11	192	5
TAP	11	264	4
STR	11	336	3
SI_	11	336	3	96	48	0
TAP	12	192	5
TAP	12	216	2
TAP	12	264	2
TAP	12	288	5
TAP	13	0	7
TAP	13	48	7
TAP	13	96	6
TAP	13	144	1
TAP	13	192	0
TAP	13	240	0
TAP	13	288	2
TAP	13	336	5
TAP	14	0	7
STR	14	48	1
SI_	14	48	1	96	48	6
STR	14	96	5
SI_	14	96	5	96	48	2
BRK	14	288	0
TAP	15	0	0
TAP	15	48	1
TAP	15	96	2
TAP	15	96	7
TAP	15	144	1
TAP	15	192	7
TAP	15	240	6
TAP	15	288	0
TAP	15	288	5
TAP	15	336	6
TAP	16	0	0
TAP	16	48	1
TAP	16	96	2
TAP	16	96	7
TAP	16	144	1
TAP	16	192	7
TAP	16	240	6
TAP	16	288	0
TAP	16	288	5
TAP	16	336	6
TAP	17	0	0
TAP	17	48	1
TAP	17	96	3
TAP	17	96	7
TAP	17	144	0
TAP	17	144	2
TAP	17	192	7
TAP	17	240	6
TAP	17	288	0
TAP	17	288	4
TAP	17	336	5
TAP	17	336	7
TAP	18	0	0
TAP	18	48	1
TAP	18	96	3
TAP	18	96	7
TAP	18	144	0
TAP	18	144	2
TAP	18	192	7
TAP	18	240	6
TAP	18	288	0
TAP	18	288	4
TAP	18	336	5
TAP	18	336	7
TAP	19	0	6
TAP	19	48	5
TAP	19	96	4
TAP	19	144	3
STR	19	192	2
SI_	19	192	2	96	384	5
TAP	20	0	4
TAP	20	96	4
TAP	20	192	4
TAP	20	288	4
TAP	21	0	1
TAP	21	48	2
TAP	21	96	3
TAP	21	144	4
STR	21	192	5
SI_	21	192	5	96	384	2
TAP	22	0	7
TAP	22	48	0
STR	22	96	1
SI_	22	96	1	96	96	6
TAP	23	0	2
TAP	23	0	6
TAP	23	48	0
TAP	23	48	4
TAP	23	96	1
TAP	23	96	5
TAP	23	192	1
TAP	23	192	5
TAP	23	240	3
TAP	23	240	7
TAP	23	288	2
TAP	23	288	6
TAP	24	0	2
TAP	24	0	6
TAP	24	48	0
TAP	24	48	4
TAP	24	96	1
TAP	24	96	5
TAP	24	144	3
TAP	24	144	7
TAP	24	192	2
TAP	24	192	6
STR	25	0	1
SI_	25	0	1	96	48	5
TAP	25	72	1
TAP	25	96	1
TAP	25	144	1
STR	25	192	6
SI_	25	192	6	96	48	2
TAP	25	264	6
TAP	25	288	6
TAP	25	336	6
STR	26	0	4
SI_	26	0	4	96	192	7
HLD	27	0	1	96
TAP	27	48	6
HLD	27	96	6	96
TAP	27	144	2
HLD	27	192	2	96
TAP	27	240	5
HLD	27	288	5	96
TAP	27	336	1
HLD	28	0	1	96
TAP	28	48	6
HLD	28	96	6	96
TAP	28	144	2
HLD	28	192	2	96
TAP	28	240	5
HLD	28	288	5	96
TAP	28	336	1
HLD	29	0	3	96
TAP	29	48	4
HLD	29	96	4	96
TAP	29	144	7
HLD	29	192	7	96
TAP	29	240	0
BRK	29	288	0
HLD	30	0	4	96
TAP	30	48	3
HLD	30	96	3	96
TAP	30	144	0
HLD	30	192	0	96
TAP	30	240	7
BRK	30	288	7
HLD	31	0	2	72
TAP	31	72	3
TAP	31	96	5
HLD	31	192	5	72
TAP	31	264	4
TAP	31	288	2
HLD	32	0	1	72
TAP	32	72	2
TAP	32	96	7
HLD	32	192	6	72
TAP	32	264	5
TAP	32	288	0
STR	33	0	0
SI_	33	0	0	96	48	4
TAP	33	72	0
TAP	33	96	0
TAP	33	144	0
STR	33	192	7
SI_	33	192	7	96	48	3
TAP	33	264	7
TAP	33	288	7
TAP	33	336	7
STR	34	0	5
SI_	34	0	5	96	192	1
STR	35	0	3
SI_	35	0	3	96	48	6
STR	35	0	4
SI_	35	0	4	96	48	1
TAP	35	192	0
TAP	35	264	5
HLD	35	336	3	96
TAP	36	48	2
HLD	36	96	3	144
TAP	36	144	2
TAP	36	192	5
HLD	36	240	4	144
TAP	36	288	5
TAP	37	0	1
TAP	37	48	1
TAP	37	96	2
TAP	37	144	2
TAP	37	192	6
TAP	37	240	6
TAP	37	288	5
TAP	37	336	5
TAP	38	0	3
HLD	38	0	4	288
STR	38	96	5
SI_	38	96	5	96	96	2
TAP	39	0	0
TAP	39	0	7
TAP	39	96	1
TAP	39	96	2
TAP	39	192	5
TAP	39	192	6
TAP	39	264	2
TAP	39	264	3
TAP	39	336	3
TAP	39	336	4
TAP	40	48	0
TAP	40	96	5
TAP	40	144	1
TAP	40	168	7
TAP	40	216	2
TAP	40	264	6
TAP	40	288	4
TAP	41	0	6
TAP	41	48	6
TAP	41	96	0
TAP	41	144	0
TAP	41	192	2
TAP	41	240	2
TAP	41	288	4
TAP	41	336	4
TAP	42	0	6
TAP	42	24	7
TAP	42	48	0
TAP	42	72	1
TAP	42	96	2
TAP	42	120	3
TAP	42	144	4
TAP	42	168	5
HLD	42	192	6	96
BRK	42	288	1
TAP	43	0	6
TAP	43	0	7
TAP	43	48	0
TAP	43	96	2
TAP	43	96	3
TAP	43	144	1
TAP	43	192	0
TAP	43	192	1
TAP	43	240	7
TAP	43	288	4
TAP	43	288	5
TAP	43	336	6
TAP	44	0	6
TAP	44	0	7
TAP	44	48	0
TAP	44	96	2
TAP	44	96	3
TAP	44	144	1
TAP	44	192	0
TAP	44	192	1
TAP	44	240	7
TAP	44	288	4
TAP	44	288	5
TAP	44	336	6
TAP	45	0	5
TAP	45	0	7
TAP	45	48	0
TAP	45	96	2
TAP	45	96	4
TAP	45	144	1
TAP	45	192	0
TAP	45	192	2
TAP	45	240	7
TAP	45	288	3
TAP	45	288	5
TAP	45	336	6
TAP	46	0	5
TAP	46	0	7
TAP	46	48	0
TAP	46	96	2
TAP	46	96	4
TAP	46	144	1
TAP	46	192	0
TAP	46	192	2
TAP	46	240	7
TAP	46	288	3
TAP	46	288	5
TAP	46	336	6
STR	47	0	0
SI_	47	0	0	96	288	3
STR	47	0	7
SI_	47	0	7	96	288	4
TAP	49	0	0
TAP	49	0	7
TAP	49	192	0
TAP	49	192	7
TAP	50	0	3
TAP	50	0	4
TAP	50	192	3
TAP	50	192	4
TAP	51	0	1
TAP	51	0	5
TAP	51	48	3
TAP	51	96	1
TAP	51	96	5
TAP	51	144	3
TAP	51	192	1
TAP	51	192	5
TAP	51	240	3
TAP	51	288	1
TAP	51	288	5
TAP	51	336	3
TAP	52	0	1
TAP	52	0	5
TAP	52	48	3
TAP	52	96	1
TAP	52	96	5
TAP	52	144	3
TAP	52	192	1
TAP	52	192	5
TAP	52	240	3
TAP	52	288	1
TAP	52	288	5
TAP	52	336	3
TAP	53	0	2
TAP	53	0	6
TAP	53	48	4
TAP	53	96	1
TAP	53	96	5
TAP	53	144	3
TAP	53	192	2
TAP	53	192	6
TAP	53	240	4
TAP	53	288	1
TAP	53	288	5
TAP	53	336	3
TAP	54	0	2
TAP	54	0	6
TAP	54	48	4
TAP	54	96	1
TAP	54	96	5
TAP	54	144	3
HLD	54	192	6	96
BRK	54	288	1
STR	55	0	0
SI_	55	0	0	96	48	3
TAP	55	192	7
TAP	55	264	6
STR	55	336	5
SI_	55	336	5	96	48	2
TAP	56	192	1
TAP	56	216	6
TAP	56	264	6
TAP	56	288	1
TAP	57	0	7
TAP	57	48	7
TAP	57	96	1
TAP	57	144	3
TAP	57	192	0
TAP	57	240	0
TAP	57	288	6
TAP	57	336	4
TAP	58	0	7
TAP	58	48	1
TAP	58	96	3
TAP	58	144	5
STR	58	192	7
SI_	58	192	7	96	48	3
STR	59	0	1
SI_	59	0	1	96	48	6
TAP	59	192	5
TAP	59	264	4
STR	59	336	3
SI_	59	336	3	96	48	0
TAP	60	192	5
TAP	60	216	2
TAP	60	264	2
TAP	60	288	5
TAP	61	0	7
TAP	61	48	7
TAP	61	96	6
TAP	61	144	1
TAP	61	192	0
TAP	61	240	0
TAP	61	288	2
TAP	61	336	5
TAP	62	0	7
STR	62	48	1
SI_	62	48	1	96	48	6
STR	62	96	5
SI_	62	96	5	96	48	2
BRK	62	288	0
TAP	63	0	7
STR	63	48	1
SI_	63	48	1	96	48	6
STR	63	96	5
SI_	63	96	5	96	48	2
BRK	63	288	0
TAP	64	0	7
STR	64	48	1
SI_	64	48	1	96	48	6
STR	64	96	5
SI_	64	96	5	96	48	2
BRK	64	288	0
TAP	65	0	1
TAP	65	0	5
TAP	65	72	2
TAP	65	72	6
BRK	65	144	0
TAP	66	0	1
TAP	66	0	7
TAP	66	48	4
TAP	66	96	2
TAP	66	96	6
TAP	66	144	4
TAP	66	192	1
TAP	66	192	7
TAP	66	240	4
TAP	66	288	2
TAP	66	288	6
TAP	66	336	4
TAP	67	0	0
TAP	67	0	6
TAP	67	48	3
TAP	67	96	1
TAP	67	96	5
TAP	67	144	3
TAP	67	192	0
TAP	67	192	6
TAP	67	240	3
TAP	67	288	1
TAP	67	288	5
TAP	67	336	3
TAP	68	0	1
TAP	68	0	7
TAP	68	48	4
TAP	68	96	2
TAP	68	96	6
TAP	68	144	4
TAP	68	192	1
TAP	68	192	7
TAP	68	240	4
TAP	68	288	2
TAP	68	288	6
TAP	68	336	4
TAP	69	0	0
TAP	69	0	6
TAP	69	48	3
TAP	69	96	1
TAP	69	96	5
TAP	69	144	3
TAP	69	192	0
TAP	69	192	6
TAP	69	240	3
TAP	69	288	1
TAP	69	288	5
TAP	69	336	3
TAP	70	0	1
TAP	70	0	7
TAP	70	48	4
TAP	70	96	2
TAP	70	96	6
TAP	70	144	7
TAP	70	168	0
TAP	70	216	1
TAP	70	240	0
TAP	70	288	2
TAP	70	288	6
TAP	70	336	4
TAP	71	0	0
TAP	71	0	6
TAP	71	48	3
TAP	71	96	1
TAP	71	96	5
TAP	71	144	0
TAP	71	168	7
TAP	71	216	6
TAP	71	240	7
TAP	71	288	1
TAP	71	288	5
TAP	71	336	3
TAP	72	0	1
TAP	72	0	7
TAP	72	48	4
TAP	72	96	2
TAP	72	96	6
TAP	72	144	7
TAP	72	168	0
TAP	72	216	1
TAP	72	240	0
TAP	72	288	2
TAP	72	288	6
TAP	72	336	4
TAP	73	0	0
TAP	73	0	6
TAP	73	48	3
TAP	73	96	1
TAP	73	96	5
TAP	73	144	0
TAP	73	168	7
TAP	73	216	6
TAP	73	240	7
TAP	73	288	1
TAP	73	288	5
STR	73	336	7
SI_	73	336	7	96	24	3

T_REC_TAP	459
T_REC_BRK	9
T_REC_XTP	0
T_REC_HLD	24
T_REC_XHO	0
T_REC_STR	36
T_REC_BST	0
T_REC_XST	0
T_REC_TTP	0
T_REC_THO	0
T_REC_SLD	36
T_REC_ALL	564
T_NUM_TAP	495
T_NUM_BRK	9
T_NUM_HLD	24
T_NUM_SLD	36
T_NUM_ALL	564
T_JUDGE_TAP	504
T_JUDGE_HLD	54
T_JUDGE_SLD	36
T_JUDGE_ALL	594
TTM_EACHPAIRS	96
TTM_SCR_TAP	247500
TTM_SCR_BRK	23400
TTM_SCR_HLD	24000
TTM_SCR_SLD	54000
TTM_SCR_ALL	348900
TTM_SCR_S	337600
TTM_SCR_SS	348000
TTM_RAT_ACV	10025

