VERSION	0.00.00	1.03.00
FES_MODE	0
BPM_DEF	142.000	142.000	142.000	142.000
MET_DEF	4	4
RESOLUTION	384
CLK_DEF	384
COMPATIBLE_CODE	MA2

BPM	0	0	142.000
MET	0	0	4	4

TAP	2	0	2
TAP	2	72	0
BRK	2	144	4
TAP	3	0	7
TAP	3	96	2
TAP	3	96	5
TAP	3	192	3
TAP	3	288	0
TAP	3	288	6
TAP	4	0	7
TAP	4	96	2
TAP	4	96	5
TAP	4	192	3
TAP	4	288	0
TAP	4	288	6
TAP	5	0	7
TAP	5	96	2
HLD	5	96	5	96
TAP	5	192	3
TAP	5	288	0
HLD	5	288	6	96
TAP	6	0	7
TAP	6	96	2
HLD	6	96	5	96
TAP	6	192	3
TAP	6	288	0
TAP	6	288	6
STR	7	0	3
SI_	7	0	3	96	48	0
STR	7	0	4
SI_	7	0	4	96	48	7
TAP	7	192	1
TAP	7	192	6
STR	8	0	2
SI_	8	0	2	96	48	5
TAP	8	192	1
TAP	8	240	6
TAP	8	288	1
STR	9	0	2
SI_	9	0	2	96	48	5
TAP	9	0	6
TAP	9	192	2
STR	9	192	6
SI_	9	192	6	96	48	1
STR	10	0	2
SI_	10	0	2	96	48	5
TAP	10	0	6
TAP	10	192	2
STR	10	192	6
SI_	10	192	6	96	48	1
TAP	11	0	4
TAP	11	0	5
TAP	11	96	2
TAP	11	96	7
TAP	11	192	6
TAP	11	240	3
TAP	11	288	4
TAP	12	0	2
TAP	12	48	5
TAP	12	96	4
TAP	12	192	6
TAP	12	288	1
TAP	13	0	5
TAP	13	0	6
TAP	13	96	1
TAP	13	96	2
HLD	13	192	4	96
HLD	13	288	0	96
HLD	14	0	5	96
HLD	14	96	0	96
TAP	14	192	4
BRK	14	288	0
BRK	14	288	1
TAP	15	0	7
TAP	15	96	2
HLD	15	96	5	96
TAP	15	192	3
TAP	15	288	0
HLD	15	288	6	96
TAP	16	0	7
TAP	16	96	2
HLD	16	96	5	96
TAP	16	192	3
TAP	16	288	0
HLD	16	288	6	96
STR	17	0	7
SI_	17	0	7	96	48	2
TAP	17	96	5
STR	17	192	3
SI_	17	192	3	96	48	0
TAP	17	288	6
STR	18	0	7
SI_	18	0	7	96	48	2
TAP	18	96	5
STR	18	192	3
SI_	18	192	3	96	48	0
TAP	18	288	6
HLD	19	0	5	672
TAP	19	96	2
HLD	19	192	0	96
TAP	20	0	0
TAP	20	96	0
TAP	20	192	0
TAP	20	288	0
TAP	21	0	1
HLD	21	0	2	672
TAP	21	96	7
HLD	21	192	4	96
STR	22	0	4
SI_	22	0	4	96	192	7
TAP	23	0	4
TAP	23	0	6
TAP	23	96	1
TAP	23	96	5
TAP	23	192	1
TAP	23	192	3
TAP	23	288	2
TAP	23	288	6
STR	24	0	3
SCR	24	0	3	96	96	6
STR	24	0	7
SCR	24	0	7	96	96	2
TAP	24	288	3
TAP	24	288	7
HLD	25	0	2	96
HLD	25	0	6	96
HLD	25	192	1	96
HLD	25	192	5	96
HLD	26	0	2	48
HLD	26	0	6	96
TAP	26	96	4
HLD	26	192	1	96
HLD	26	192	5	48
TAP	26	288	3
HLD	27	0	6	96
HLD	27	96	1	96
HLD	27	192	6	96
HLD	27	288	1	96
TAP	28	0	6
STR	28	96	5
SCL	28	96	5	96	96	2
STR	28	96	7
SCR	28	96	7	96	96	2
HLD	29	0	3	96
HLD	29	96	2	96
HLD	29	192	6	96
BRK	29	288	7
HLD	30	0	3	96
HLD	30	96	2	96
HLD	30	192	6	96
BRK	30	288	7
STR	31	0	2
SI_	31	0	2	96	48	5
TAP	31	192	4
TAP	32	0	0
TAP	32	0	1
TAP	32	96	4
TAP	32	192	0
TAP	32	192	7
TAP	32	288	5
STR	33	0	7
SI_	33	0	7	96	48	2
STR	33	192	0
SI_	33	192	0	96	48	5
STR	34	0	4
SI_	34	0	4	96	192	7
STR	35	0	3
SI_	35	0	3	96	48	0
STR	35	0	4
SI_	35	0	4	96	48	7
TAP	35	192	1
TAP	35	192	6
STR	36	0	2
SI_	36	0	2	96	48	5
TAP	36	192	1
TAP	36	240	6
TAP	36	288	1
STR	37	0	2
SI_	37	0	2	96	48	5
TAP	37	0	6
TAP	37	192	2
STR	37	192	6
SI_	37	192	6	96	48	1
STR	38	0	2
SI_	38	0	2	96	48	5
TAP	38	0	6
TAP	38	192	2
STR	38	192	6
SI_	38	192	6	96	48	1
TAP	39	0	4
TAP	39	0	5
TAP	39	96	2
TAP	39	96	7
TAP	39	192	6
TAP	39	240	3
TAP	39	288	4
TAP	40	0	2
TAP	40	48	5
TAP	40	96	4
TAP	40	192	6
TAP	40	288	1
TAP	41	0	5
TAP	41	0	6
TAP	41	96	1
TAP	41	96	2
HLD	41	192	4	96
HLD	41	288	0	96
HLD	42	0	5	96
HLD	42	96	0	96
TAP	42	192	4
BRK	42	288	0
BRK	42	288	1
STR	43	0	7
SI_	43	0	7	96	48	2
TAP	43	96	5
STR	43	192	3
SI_	43	192	3	96	48	0
TAP	43	288	6
STR	44	0	7
SI_	44	0	7	96	48	2
TAP	44	96	5
STR	44	192	3
SI_	44	192	3	96	48	0
TAP	44	288	6
STR	45	0	7
SCR	45	0	7	96	48	2
TAP	45	96	5
STR	45	192	3
SCL	45	192	3	96	48	0
TAP	45	288	6
STR	46	0	7
SCR	46	0	7	96	48	2
TAP	46	96	5
STR	46	192	3
SCL	46	192	3	96	48	0
TAP	46	288	6
STR	47	0	1
SI_	47	0	1	96	288	4
TAP	49	0	2
HLD	49	96	6	192
TAP	49	192	5
TAP	49	288	1
TAP	50	0	1
TAP	50	0	6
TAP	50	96	0
TAP	50	96	7
HLD	50	192	3	96
HLD	50	192	4	96
HLD	51	0	3	48
HLD	51	0	4	48
HLD	51	96	3	48
HLD	51	96	4	48
HLD	51	192	3	48
HLD	51	192	4	48
HLD	51	288	3	48
HLD	51	288	4	48
HLD	52	0	3	48
HLD	52	0	4	48
HLD	52	96	3	48
HLD	52	96	4	48
HLD	52	192	3	48
HLD	52	192	4	48
HLD	52	288	3	48
HLD	52	288	4	48
TAP	53	0	4
TAP	53	0	6
TAP	53	96	1
TAP	53	96	5
TAP	53	192	1
TAP	53	192	3
TAP	53	288	2
TAP	53	288	6
STR	54	0	3
SCR	54	0	3	96	96	6
STR	54	0	7
SCR	54	0	7	96	96	2
BRK	54	288	0
BRK	54	288	1
STR	55	0	1
SI_	55	0	1	96	48	4
STR	55	0	5
SI_	55	0	5	96	48	0
STR	55	192	2
SI_	55	192	2	96	48	7
STR	55	192	6
SI_	55	192	6	96	48	3
STR	56	0	1
SI_	56	0	1	96	48	4
STR	56	0	5
SI_	56	0	5	96	48	0
TAP	56	192	1
TAP	56	240	6
TAP	56	288	1
STR	57	0	2
SI_	57	0	2	96	48	5
TAP	57	0	6
TAP	57	192	2
STR	57	192	6
SI_	57	192	6	96	48	1
STR	58	0	2
SI_	58	0	2	96	48	5
TAP	58	0	6
TAP	58	192	2
STR	58	192	6
SI_	58	192	6	96	48	1
TAP	59	0	4
TAP	59	0	5
TAP	59	96	2
TAP	59	96	7
TAP	59	192	6
TAP	59	240	3
TAP	59	288	4
TAP	60	0	2
HLD	60	48	5	144
TAP	60	96	4
TAP	60	192	6
TAP	60	288	1
TAP	61	0	5
TAP	61	0	6
TAP	61	96	1
TAP	61	96	2
HLD	61	192	4	96
HLD	61	288	0	96
HLD	62	0	5	96
HLD	62	96	0	96
HLD	62	192	4	192
HLD	63	0	1	96
HLD	63	96	4	96
HLD	63	192	6	192
HLD	64	0	5	96
HLD	64	96	7	192
HLD	64	192	0	96
TAP	65	0	1
TAP	65	0	5
TAP	65	72	2
TAP	65	72	6
BRK	65	144	0
HLD	66	0	5	96
HLD	66	96	7	96
HLD	66	192	4	96
HLD	66	288	2	96
TAP	67	0	5
STR	67	96	0
SCR	67	96	0	96	48	3
TAP	67	96	7
TAP	67	288	1
TAP	67	288	6
TAP	68	0	5
STR	68	0	6
SI_	68	0	6	96	48	2
STR	68	192	1
SI_	68	192	1	96	48	5
TAP	68	192	2
TAP	69	0	4
TAP	69	48	3
TAP	69	96	5
TAP	69	144	2
TAP	69	192	6
TAP	69	240	1
TAP	69	288	7
TAP	69	336	0
STR	70	0	7
SCR	70	0	7	96	48	2
BRK	70	96	5
STR	70	192	3
SCL	70	192	3	96	48	0
BRK	70	288	6
STR	71	0	7
SCR	71	0	7	96	48	2
BRK	71	96	5
STR	71	192	3
SCL	71	192	3	96	48	0
BRK	71	288	6
STR	72	0	7
SCR	72	0	7	96	48	2
BRK	72	96	5
STR	72	192	3
SCL	72	192	3	96	48	0
BRK	72	288	6
STR	73	0	7
SCR	73	0	7	96	48	2
BRK	73	96	5
TAP	73	192	3
TAP	73	192	7
STR	73	288	0
SI_	73	288	0	96	48	5
HLD	73	288	4	96

T_REC_TAP	179
T_REC_BRK	17
T_REC_XTP	0
T_REC_HLD	73
T_REC_XHO	0
T_REC_STR	59
T_REC_BST	0
T_REC_XST	0
T_REC_TTP	0
T_REC_THO	0
T_REC_SLD	59
T_REC_ALL	387
T_NUM_TAP	238
T_NUM_BRK	17
T_NUM_HLD	73
T_NUM_SLD	59
T_NUM_ALL	387
T_JUDGE_TAP	255
T_JUDGE_HLD	161
T_JUDGE_SLD	59
T_JUDGE_ALL	475
TTM_EACHPAIRS	84
TTM_SCR_TAP	119000
TTM_SCR_BRK	44200
TTM_SCR_HLD	73000
TTM_SCR_SLD	88500
TTM_SCR_ALL	324700
TTM_SCR_S	313350
TTM_SCR_SS	323000
TTM_RAT_ACV	10052

