VERSION	0.00.00	1.03.00
FES_MODE	0
BPM_DEF	142.000	142.000	142.000	142.000
MET_DEF	4	4
RESOLUTION	384
CLK_DEF	384
COMPATIBLE_CODE	MA2

BPM	0	0	142.000
MET	0	0	4	4

TAP	2	0	1
TAP	2	72	7
BRK	2	144	2
HLD	3	0	0	96
TAP	3	96	5
HLD	3	192	6	96
TAP	3	288	2
HLD	4	0	0	96
TAP	4	96	5
HLD	4	192	6	96
TAP	4	288	2
HLD	5	0	0	96
TAP	5	96	5
HLD	5	192	6	96
TAP	5	288	2
HLD	6	0	0	96
TAP	6	96	5
HLD	6	192	6	96
BRK	6	288	2
TAP	7	0	3
TAP	7	0	4
TAP	7	96	1
TAP	7	96	6
TAP	7	192	2
TAP	7	192	5
TAP	7	288	0
TAP	7	288	7
TAP	8	0	1
TAP	8	96	5
TAP	8	192	2
TAP	8	288	6
TAP	9	0	1
TAP	9	96	7
TAP	9	192	6
TAP	9	288	0
TAP	10	0	3
TAP	10	96	4
TAP	10	192	3
TAP	10	288	4
TAP	11	0	2
TAP	11	0	4
TAP	11	96	1
TAP	11	96	7
TAP	11	192	4
TAP	11	288	3
TAP	12	0	5
TAP	12	96	2
TAP	12	192	6
TAP	12	288	1
TAP	13	0	6
TAP	13	96	1
TAP	13	192	5
TAP	13	288	1
TAP	14	0	1
TAP	14	96	5
TAP	14	192	4
TAP	14	192	5
BRK	14	288	0
BRK	14	288	1
HLD	15	0	1	96
TAP	15	96	2
HLD	15	192	6	96
TAP	15	288	5
HLD	16	0	2	96
TAP	16	96	3
HLD	16	192	5	96
TAP	16	288	4
HLD	17	0	1	96
TAP	17	96	2
HLD	17	192	6	96
TAP	17	288	5
HLD	18	0	2	97
TAP	18	96	3
HLD	18	192	5	96
BRK	18	288	4
TAP	19	0	6
TAP	19	96	3
STR	19	192	3
SI_	19	192	3	96	48	0
TAP	20	0	0
TAP	20	96	0
TAP	20	192	0
TAP	20	288	0
TAP	21	0	1
TAP	21	96	6
STR	21	192	7
SI_	21	192	7	96	48	4
TAP	22	0	4
STR	22	96	4
SI_	22	96	4	96	48	7
TAP	23	0	5
TAP	23	96	1
TAP	23	192	2
TAP	23	288	6
STR	24	0	3
SCR	24	0	3	96	96	6
STR	24	0	7
SCR	24	0	7	96	96	2
TAP	25	0	2
TAP	25	0	7
TAP	25	192	0
TAP	25	192	5
TAP	26	0	2
TAP	26	0	6
TAP	26	192	1
TAP	26	192	5
TAP	27	0	4
TAP	27	96	3
TAP	27	192	5
TAP	27	288	2
TAP	28	0	4
TAP	28	96	3
TAP	28	192	5
TAP	28	288	2
TAP	29	0	5
TAP	29	96	1
TAP	29	192	6
BRK	29	288	7
TAP	30	0	5
TAP	30	96	1
TAP	30	192	6
BRK	30	288	7
TAP	31	0	5
TAP	31	96	2
TAP	31	192	5
TAP	31	288	5
TAP	32	0	0
TAP	32	0	1
TAP	32	72	0
TAP	32	72	7
TAP	32	144	6
TAP	32	144	7
TAP	32	288	7
TAP	33	0	2
TAP	33	96	0
TAP	33	192	5
TAP	33	288	0
STR	34	0	4
SI_	34	0	4	96	48	7
BRK	34	288	0
TAP	35	0	3
TAP	35	0	4
TAP	35	96	1
TAP	35	96	6
TAP	35	192	2
TAP	35	192	5
TAP	35	288	0
TAP	35	288	7
TAP	36	0	1
TAP	36	96	5
TAP	36	192	2
TAP	36	288	6
TAP	37	0	1
TAP	37	96	7
TAP	37	192	6
TAP	37	288	0
TAP	38	0	3
TAP	38	96	4
TAP	38	192	3
TAP	38	288	4
TAP	39	0	2
TAP	39	0	4
TAP	39	96	1
TAP	39	96	7
TAP	39	192	4
TAP	39	288	3
TAP	40	0	5
TAP	40	96	2
TAP	40	192	6
TAP	40	288	1
TAP	41	0	6
TAP	41	96	1
TAP	41	192	5
TAP	41	288	1
TAP	42	0	1
TAP	42	96	5
TAP	42	192	4
TAP	42	192	5
BRK	42	288	0
BRK	42	288	1
HLD	43	0	0	96
TAP	43	96	5
HLD	43	192	6	96
TAP	43	288	2
HLD	44	0	0	96
TAP	44	96	5
HLD	44	192	6	96
TAP	44	288	2
HLD	45	0	0	96
TAP	45	96	5
HLD	45	192	6	96
TAP	45	288	2
HLD	46	0	0	96
TAP	46	96	5
HLD	46	192	6	96
BRK	46	288	2
STR	47	0	0
SCR	47	0	0	96	96	3
TAP	49	0	2
TAP	49	192	3
TAP	50	0	1
TAP	50	0	6
TAP	50	192	0
TAP	50	192	7
TAP	51	0	3
TAP	51	0	4
TAP	51	96	3
TAP	51	96	4
TAP	51	192	3
TAP	51	192	4
TAP	51	288	3
TAP	51	288	4
TAP	52	0	3
TAP	52	0	4
TAP	52	96	3
TAP	52	96	4
TAP	52	192	3
TAP	52	192	4
TAP	52	288	3
TAP	52	288	4
TAP	53	96	1
TAP	53	96	3
TAP	53	288	4
TAP	53	288	6
STR	54	0	3
SCR	54	0	3	96	96	6
STR	54	0	7
SCR	54	0	7	96	96	2
BRK	54	288	0
BRK	54	288	1
TAP	55	0	5
TAP	55	0	6
TAP	55	96	1
TAP	55	96	6
TAP	55	192	2
TAP	55	192	5
TAP	55	288	0
TAP	55	288	7
TAP	56	0	1
TAP	56	96	5
TAP	56	192	2
TAP	56	288	6
TAP	57	0	1
TAP	57	96	7
TAP	57	192	6
TAP	57	288	0
TAP	58	0	3
TAP	58	96	4
TAP	58	192	3
TAP	58	288	4
TAP	59	0	2
TAP	59	0	4
TAP	59	96	1
TAP	59	96	7
TAP	59	192	4
TAP	59	288	3
TAP	60	0	5
TAP	60	96	2
TAP	60	192	6
TAP	60	288	1
TAP	61	0	6
TAP	61	96	1
TAP	61	192	5
TAP	61	288	1
TAP	62	0	1
TAP	62	96	5
TAP	62	192	4
TAP	62	192	5
BRK	62	288	0
BRK	62	288	1
TAP	63	0	0
STR	63	96	1
SCL	63	96	1	96	96	6
TAP	64	0	6
STR	64	96	5
SCR	64	96	5	96	96	0
BRK	65	0	3
BRK	65	0	4
BRK	65	72	1
BRK	65	72	6
BRK	65	144	0
BRK	65	144	7
HLD	66	0	5	96
TAP	66	96	7
HLD	66	192	6	96
TAP	66	288	5
HLD	67	0	2	96
TAP	67	96	3
HLD	67	192	5	96
TAP	67	288	4
HLD	68	0	1	96
TAP	68	96	2
HLD	68	192	6	96
TAP	68	288	5
TAP	69	0	2
TAP	69	48	3
TAP	69	96	2
TAP	69	192	5
TAP	69	240	4
TAP	69	288	5
HLD	70	0	2	96
TAP	70	96	3
HLD	70	192	5	95
TAP	70	288	4
HLD	71	0	1	96
TAP	71	96	2
HLD	71	192	6	96
TAP	71	288	5
HLD	72	0	1	96
TAP	72	96	2
HLD	72	192	6	96
TAP	72	288	5
TAP	73	0	2
TAP	73	96	6
TAP	73	192	1
STR	73	288	0
SI_	73	288	0	96	48	4

T_REC_TAP	236
T_REC_BRK	21
T_REC_XTP	0
T_REC_HLD	36
T_REC_XHO	0
T_REC_STR	12
T_REC_BST	0
T_REC_XST	0
T_REC_TTP	0
T_REC_THO	0
T_REC_SLD	12
T_REC_ALL	317
T_NUM_TAP	248
T_NUM_BRK	21
T_NUM_HLD	36
T_NUM_SLD	12
T_NUM_ALL	317
T_JUDGE_TAP	269
T_JUDGE_HLD	73
T_JUDGE_SLD	12
T_JUDGE_ALL	354
TTM_EACHPAIRS	49
TTM_SCR_TAP	124000
TTM_SCR_BRK	54600
TTM_SCR_HLD	36000
TTM_SCR_SLD	18000
TTM_SCR_ALL	232600
TTM_SCR_S	223600
TTM_SCR_SS	230500
TTM_RAT_ACV	10091

