VERSION	0.00.00	1.03.00
FES_MODE	0
BPM_DEF	142.000	142.000	142.000	142.000
MET_DEF	4	4
RESOLUTION	384
CLK_DEF	384
COMPATIBLE_CODE	MA2

BPM	0	0	142.000
MET	0	0	4	4

TAP	3	96	0
TAP	3	288	6
TAP	4	96	0
TAP	4	288	6
TAP	5	96	0
TAP	5	288	6
TAP	6	96	0
TAP	6	288	6
TAP	9	96	6
TAP	9	288	1
TAP	10	96	6
TAP	10	288	1
TAP	11	96	7
TAP	12	192	6
TAP	13	96	1
TAP	13	288	0
TAP	14	96	0
BRK	14	288	0
TAP	15	96	0
TAP	15	288	6
TAP	16	96	0
TAP	16	288	6
TAP	17	96	0
TAP	17	288	6
TAP	18	96	0
TAP	18	288	6
TAP	19	0	5
TAP	19	96	3
TAP	19	192	0
TAP	20	0	0
TAP	20	96	0
TAP	20	192	0
TAP	21	0	1
TAP	21	96	7
STR	21	192	4
SI_	21	192	4	96	288	7
TAP	23	96	1
TAP	23	288	6
TAP	25	0	3
TAP	25	0	6
TAP	25	192	1
TAP	25	192	4
TAP	26	0	3
TAP	26	0	6
TAP	26	192	1
TAP	26	192	4
TAP	27	0	6
TAP	27	96	1
TAP	27	192	6
TAP	28	0	4
TAP	29	0	4
TAP	29	96	2
TAP	29	192	6
TAP	29	288	7
TAP	30	0	4
TAP	30	96	2
TAP	30	192	6
TAP	30	288	7
TAP	31	192	6
TAP	33	0	0
TAP	33	96	2
TAP	33	192	7
STR	33	288	4
SI_	33	288	4	96	288	7
TAP	35	96	1
TAP	35	96	6
TAP	37	96	6
TAP	37	288	1
TAP	38	96	6
TAP	38	288	1
TAP	39	96	7
TAP	40	192	6
TAP	41	96	1
TAP	41	288	0
TAP	42	96	0
BRK	42	288	0
TAP	43	96	0
TAP	43	288	6
TAP	44	96	0
TAP	44	288	6
TAP	45	96	0
TAP	45	288	6
TAP	46	96	0
TAP	46	288	6
STR	47	0	0
SI_	47	0	0	96	288	4
TAP	51	0	5
TAP	51	96	5
TAP	51	192	5
TAP	51	288	5
TAP	52	0	5
TAP	52	96	5
TAP	52	192	5
TAP	52	288	5
TAP	53	96	1
TAP	53	288	6
BRK	54	288	0
TAP	55	96	5
TAP	55	288	0
TAP	56	96	5
TAP	56	192	1
TAP	56	288	1
TAP	57	96	6
TAP	57	288	1
TAP	58	96	6
TAP	58	288	1
TAP	59	96	7
TAP	60	192	6
TAP	60	288	1
TAP	61	96	1
TAP	61	288	0
TAP	62	0	5
TAP	62	96	0
TAP	62	192	5
TAP	63	0	0
TAP	63	96	6
TAP	64	0	3
TAP	64	96	6
TAP	65	0	1
TAP	65	0	6
BRK	65	144	0
TAP	66	96	7
TAP	67	0	2
TAP	67	0	5
TAP	67	96	0
TAP	67	288	1
TAP	67	288	6
TAP	68	96	1
TAP	68	288	6
TAP	70	96	0
TAP	70	288	6
TAP	71	96	0
TAP	71	288	6
TAP	72	96	0
TAP	72	288	6
TAP	73	96	2
TAP	73	192	5
STR	73	288	0
SI_	73	288	0	96	96	4

T_REC_TAP	127
T_REC_BRK	4
T_REC_XTP	0
T_REC_HLD	0
T_REC_XHO	0
T_REC_STR	4
T_REC_BST	0
T_REC_XST	0
T_REC_TTP	0
T_REC_THO	0
T_REC_SLD	4
T_REC_ALL	139
T_NUM_TAP	131
T_NUM_BRK	4
T_NUM_HLD	0
T_NUM_SLD	4
T_NUM_ALL	139
T_JUDGE_TAP	135
T_JUDGE_HLD	0
T_JUDGE_SLD	4
T_JUDGE_ALL	139
TTM_EACHPAIRS	8
TTM_SCR_TAP	65500
TTM_SCR_BRK	10400
TTM_SCR_HLD	0
TTM_SCR_SLD	6000
TTM_SCR_ALL	81900
TTM_SCR_S	79100
TTM_SCR_SS	81500
TTM_RAT_ACV	10049

