VERSION	0.00.00	1.03.00
FES_MODE	0
BPM_DEF	150.000	150.000	150.000	150.000
MET_DEF	4	4
RESOLUTION	384
CLK_DEF	384
COMPATIBLE_CODE	MA2

BPM	0	0	150.000
MET	0	0	4	4

TAP	1	0	2
TAP	1	48	2
TAP	1	96	2
TAP	1	144	5
TAP	1	168	5
TAP	1	216	3
TAP	1	240	4
TAP	1	288	2
TAP	1	336	5
TAP	2	0	3
TAP	2	48	3
TAP	2	96	3
TAP	2	144	4
TAP	2	168	4
TAP	2	216	2
TAP	2	240	5
TAP	2	288	3
TAP	2	336	4
TAP	3	0	2
TAP	3	48	2
TAP	3	96	2
TAP	3	144	5
TAP	3	168	5
TAP	3	216	2
TAP	3	240	3
TAP	3	288	5
TAP	3	336	4
TAP	4	0	0
TAP	4	0	1
TAP	4	72	6
TAP	4	72	7
BRK	4	144	0
BRK	4	144	7
TAP	4	240	1
TAP	4	288	1
TAP	4	336	7
TAP	5	0	6
TAP	5	48	6
TAP	5	96	0
TAP	5	120	7
TAP	5	144	0
TAP	5	168	7
TAP	5	240	2
TAP	5	288	2
TAP	5	336	4
TAP	6	0	5
TAP	6	48	5
TAP	6	96	3
TAP	6	120	4
TAP	6	144	3
TAP	6	168	4
TAP	6	240	6
TAP	6	288	6
TAP	6	336	5
TAP	7	0	2
TAP	7	48	2
TAP	7	96	1
TAP	7	120	6
TAP	7	144	0
TAP	7	168	7
TAP	7	240	0
TAP	7	288	0
TAP	7	336	0
TAP	8	0	6
TAP	8	0	7
TAP	8	96	2
TAP	8	96	7
TAP	8	192	0
TAP	8	192	1
TAP	8	240	0
TAP	8	240	1
BRK	8	288	0
BRK	8	288	5
TAP	9	0	0
TAP	9	48	7
TAP	9	96	0
TAP	9	120	6
TAP	9	144	7
TAP	9	168	1
TAP	9	240	5
TAP	9	288	4
TAP	9	336	5
TAP	10	0	2
TAP	10	48	3
TAP	10	96	2
TAP	10	120	4
TAP	10	144	5
TAP	10	168	3
TAP	10	240	5
TAP	10	288	4
TAP	10	336	3
TAP	11	0	2
TAP	11	48	3
TAP	11	96	4
TAP	11	120	5
TAP	11	144	3
TAP	11	168	2
TAP	11	240	1
TAP	11	288	0
TAP	11	336	7
TAP	12	0	6
TAP	12	48	1
TAP	12	48	4
STR	12	96	0
SCL	12	96	0	96	96	5
STR	12	96	4
SCL	12	96	4	96	96	1
BRK	13	0	1
BRK	13	0	6
TAP	13	96	7
TAP	13	168	0
TAP	13	216	1
TAP	13	240	2
TAP	13	288	3
TAP	14	0	4
TAP	14	48	5
TAP	14	96	4
TAP	14	168	3
TAP	14	216	6
TAP	14	240	1
TAP	14	288	0
TAP	14	288	7
HLD	15	0	0	144
TAP	15	48	1
TAP	15	96	2
TAP	15	144	1
HLD	15	192	7	144
TAP	15	240	6
TAP	15	288	5
TAP	15	336	6
HLD	16	0	1	144
TAP	16	48	2
TAP	16	96	3
TAP	16	144	2
HLD	16	192	5	144
TAP	16	240	4
TAP	16	288	3
TAP	16	336	4
HLD	17	0	1	144
TAP	17	48	6
TAP	17	96	5
HLD	17	144	6	144
TAP	17	192	1
TAP	17	240	2
HLD	17	288	1	144
TAP	17	336	5
TAP	18	0	4
HLD	18	48	5	144
TAP	18	96	2
TAP	18	144	3
HLD	18	192	2	144
TAP	18	240	6
TAP	18	288	5
TAP	18	336	6
TAP	19	0	7
TAP	19	48	4
TAP	19	96	7
TAP	19	144	4
TAP	19	192	6
TAP	19	240	5
TAP	19	288	6
TAP	19	336	5
STR	20	0	5
SI_	20	0	5	96	48	2
TAP	20	144	3
TAP	20	192	3
STR	20	192	6
SI_	20	192	6	96	48	1
TAP	20	336	0
TAP	21	0	0
TAP	21	48	1
TAP	21	96	2
TAP	21	144	3
TAP	21	192	3
TAP	21	240	2
TAP	21	288	1
TAP	21	336	0
TAP	22	0	2
TAP	22	0	3
TAP	22	96	6
TAP	22	96	7
TAP	22	192	0
TAP	22	192	1
BRK	22	288	4
BRK	22	288	5
TAP	23	0	1
TAP	23	24	1
TAP	23	48	0
TAP	23	96	1
TAP	23	144	0
TAP	23	144	7
TAP	23	192	6
TAP	23	216	6
TAP	23	240	7
TAP	23	288	6
TAP	23	336	1
TAP	23	336	7
TAP	24	0	2
TAP	24	24	3
TAP	24	48	5
TAP	24	96	2
TAP	24	144	2
TAP	24	144	5
TAP	24	192	3
TAP	24	216	3
TAP	24	240	4
TAP	24	288	3
TAP	24	336	3
TAP	24	336	4
TAP	25	0	3
TAP	25	24	3
TAP	25	48	4
TAP	25	96	3
TAP	25	144	2
TAP	25	144	4
TAP	25	192	2
TAP	25	216	3
TAP	25	240	5
TAP	25	288	2
TAP	25	336	3
TAP	25	336	5
TAP	26	0	2
TAP	26	24	3
TAP	26	48	3
TAP	26	96	2
TAP	26	144	2
TAP	26	144	3
TAP	26	192	5
TAP	26	216	5
TAP	26	240	4
TAP	26	288	5
TAP	26	336	4
TAP	26	336	5
TAP	27	0	7
TAP	27	24	6
TAP	27	48	4
TAP	27	96	7
TAP	27	144	4
TAP	27	192	6
TAP	27	216	6
TAP	27	240	5
TAP	27	288	6
TAP	27	336	5
STR	28	0	2
SI_	28	0	2	96	48	7
TAP	28	24	7
TAP	28	48	7
TAP	28	144	6
STR	28	192	6
SI_	28	192	6	96	48	3
TAP	28	216	3
TAP	28	240	3
TAP	28	336	2
TAP	29	0	0
TAP	29	48	1
TAP	29	96	2
TAP	29	144	3
TAP	29	192	4
TAP	29	240	5
TAP	29	288	6
TAP	29	336	7
TAP	30	0	2
TAP	30	0	3
TAP	30	96	6
TAP	30	96	7
TAP	30	192	0
TAP	30	192	1
BRK	30	288	1
BRK	30	288	6
HLD	31	0	1	144
TAP	31	48	6
TAP	31	96	5
HLD	31	144	6	144
TAP	31	192	1
TAP	31	240	2
HLD	31	288	1	144
TAP	31	336	5
TAP	32	0	4
HLD	32	48	5	144
TAP	32	96	2
TAP	32	144	3
HLD	32	192	2	144
TAP	32	240	6
TAP	32	288	5
TAP	32	336	6
HLD	33	0	0	144
TAP	33	48	1
TAP	33	96	2
TAP	33	144	1
HLD	33	192	7	144
TAP	33	240	6
TAP	33	288	5
TAP	33	336	6
HLD	34	0	1	144
TAP	34	48	2
TAP	34	96	3
TAP	34	144	2
HLD	34	192	5	144
TAP	34	240	4
TAP	34	288	3
TAP	34	336	4
TAP	35	0	1
TAP	35	24	0
TAP	35	48	1
TAP	35	72	0
TAP	35	96	7
TAP	35	120	0
TAP	35	144	7
TAP	35	168	0
TAP	35	192	7
TAP	35	216	6
TAP	35	240	7
TAP	35	264	6
TAP	35	288	0
TAP	35	288	7
TAP	36	0	5
TAP	36	24	4
TAP	36	48	5
TAP	36	72	4
TAP	36	96	3
TAP	36	120	4
TAP	36	144	3
TAP	36	168	4
TAP	36	192	3
TAP	36	216	2
TAP	36	240	3
TAP	36	264	2
TAP	36	288	3
TAP	36	288	4
TAP	37	0	2
TAP	37	24	5
TAP	37	48	3
TAP	37	72	4
TAP	37	96	2
TAP	37	120	5
TAP	37	144	3
TAP	37	168	4
TAP	37	192	2
TAP	37	216	3
TAP	37	240	5
TAP	37	264	4
TAP	37	288	2
TAP	37	288	5
BRK	38	0	1
BRK	38	0	2
BRK	38	72	3
BRK	38	72	4
BRK	38	144	0
BRK	38	144	7
TAP	38	240	0
TAP	38	288	0
TAP	38	336	3
TAP	39	0	3
TAP	39	48	1
TAP	39	96	2
TAP	39	120	1
TAP	39	144	2
TAP	39	168	1
TAP	39	240	7
TAP	39	288	7
TAP	39	336	4
TAP	40	0	4
TAP	40	48	6
TAP	40	96	5
TAP	40	120	6
TAP	40	144	5
TAP	40	168	6
TAP	40	240	1
TAP	40	288	6
TAP	40	336	0
TAP	41	0	7
TAP	41	48	0
TAP	41	96	7
TAP	41	120	6
TAP	41	144	1
TAP	41	168	0
TAP	41	240	2
TAP	41	288	3
TAP	41	336	4
TAP	42	0	6
TAP	42	0	7
TAP	42	96	2
TAP	42	96	7
TAP	42	192	0
TAP	42	192	1
TAP	42	240	0
TAP	42	240	1
BRK	42	288	0
BRK	42	288	5
TAP	43	0	3
TAP	43	48	4
TAP	43	96	3
TAP	43	120	4
TAP	43	144	3
TAP	43	168	4
TAP	43	240	1
TAP	43	288	5
TAP	43	336	2
TAP	44	0	6
TAP	44	48	2
TAP	44	96	1
TAP	44	120	5
TAP	44	144	2
TAP	44	168	6
TAP	44	240	0
TAP	44	288	4
TAP	44	336	3
TAP	45	0	7
TAP	45	48	1
TAP	45	96	0
TAP	45	120	4
TAP	45	144	3
TAP	45	168	7
TAP	45	240	2
TAP	45	288	4
TAP	45	336	5
TAP	46	0	3
TAP	46	48	0
TAP	46	48	4
STR	46	96	0
SCL	46	96	0	96	96	5
STR	46	96	4
SCL	46	96	4	96	96	1
BRK	47	0	0
BRK	47	0	7
TAP	47	144	6
TAP	47	168	1
TAP	47	192	6
TAP	47	240	1
TAP	47	288	0
TAP	47	312	7
TAP	47	336	0
TAP	48	0	3
TAP	48	48	4
TAP	48	96	2
TAP	48	144	5
TAP	48	192	1
TAP	48	240	6
TAP	48	288	0
HLD	48	336	7	240
TAP	49	0	1
TAP	49	48	2
TAP	49	96	1
TAP	49	144	2
TAP	49	192	6
TAP	49	240	5
TAP	49	288	6
TAP	49	336	5
TAP	50	0	2
TAP	50	48	3
TAP	50	96	5
TAP	50	144	4
TAP	50	216	3
TAP	50	240	4
TAP	50	336	3
TAP	50	360	4
TAP	51	0	5
TAP	51	48	6
STR	51	96	6
SI_	51	96	6	96	48	1
TAP	51	144	1
TAP	51	240	0
TAP	51	288	7
TAP	51	336	6
TAP	52	0	5
TAP	52	48	4
TAP	52	96	3
TAP	52	144	2
TAP	52	240	7
TAP	52	288	1
TAP	52	336	1
TAP	52	336	7
BRK	53	48	1
BRK	53	48	7
BRK	53	96	1
BRK	53	96	7
TAP	53	336	3
TAP	53	360	4
TAP	54	0	3
TAP	54	0	5
BRK	54	48	1
BRK	54	48	7
TAP	54	96	1
TAP	54	144	6
TAP	54	240	1
TAP	54	288	6
TAP	55	0	2
TAP	55	96	5
TAP	55	168	3
TAP	55	216	4
TAP	55	240	3
TAP	55	288	4
TAP	56	0	1
TAP	56	48	6
TAP	56	96	1
TAP	56	168	6
TAP	56	240	0
BRK	56	288	1
BRK	56	288	6

T_REC_TAP	434
T_REC_BRK	28
T_REC_XTP	0
T_REC_HLD	19
T_REC_XHO	0
T_REC_STR	9
T_REC_BST	0
T_REC_XST	0
T_REC_TTP	0
T_REC_THO	0
T_REC_SLD	9
T_REC_ALL	499
T_NUM_TAP	443
T_NUM_BRK	28
T_NUM_HLD	19
T_NUM_SLD	9
T_NUM_ALL	499
T_JUDGE_TAP	471
T_JUDGE_HLD	59
T_JUDGE_SLD	9
T_JUDGE_ALL	539
TTM_EACHPAIRS	49
TTM_SCR_TAP	221500
TTM_SCR_BRK	72800
TTM_SCR_HLD	19000
TTM_SCR_SLD	13500
TTM_SCR_ALL	326800
TTM_SCR_S	314300
TTM_SCR_SS	324000
TTM_RAT_ACV	10086

